<?xml version="1.0" standalone="no"?>
<!DOCTYPE svg PUBLIC "-//W3C//DTD SVG 1.1//EN" "http://www.w3.org/Graphics/SVG/1.1/DTD/svg11.dtd" >
<svg xmlns="http://www.w3.org/2000/svg">
<metadata>
This is a custom SVG webfont generated by Font Squirrel.
Copyright   : Copyright 2011 Canonical Ltd  Licensed under the Ubuntu Font Licence 10
Designer    : Dalton Maag Ltd
Foundry     : Dalton Maag Ltd
Foundry URL : httpwwwdaltonmaagcom
</metadata>
<defs>
<font id="UbuntuRegular" horiz-adv-x="1175" >
<font-face units-per-em="2048" ascent="1638" descent="-410" />
<missing-glyph horiz-adv-x="473" />
<glyph unicode="&#xfb00;" horiz-adv-x="1589" d="M164 0v1161q0 205 100.5 316.5t315.5 111.5q84 0 144 -12t85 -23l-35 -163q-25 12 -70 23t-110 11q-133 0 -186.5 -72.5t-53.5 -195.5v-92h410v-160h-410v-905h-190zM963 0v1161q0 205 100.5 316.5t315.5 111.5q84 0 144 -12t85 -23l-35 -163q-25 12 -70 23t-110 11 q-133 0 -186.5 -72.5t-53.5 -195.5v-92h410v-160h-410v-905h-190z" />
<glyph unicode="&#xfb01;" horiz-adv-x="1316" d="M164 0v1161q0 205 100.5 316.5t315.5 111.5q72 0 123 -9t73 -17l-26 -164q-23 8 -62 17t-94 9q-133 0 -186.5 -72.5t-53.5 -195.5v-92h410v-160h-410v-905h-190zM934 1382q0 57 36 91t87 34t87 -33.5t36 -91.5q0 -57 -36 -91t-87 -34t-87 34t-36 91zM963 0v1065h190 v-1065h-190z" />
<glyph unicode="&#xfb02;" horiz-adv-x="1357" d="M164 0v1161q0 205 100.5 316.5t315.5 111.5q72 0 123 -9t73 -17l-26 -164q-23 8 -62 17t-94 9q-133 0 -186.5 -72.5t-53.5 -195.5v-92h410v-160h-410v-905h-190zM958 279v1277l191 33v-1280q0 -47 8 -77.5t26.5 -49t49.5 -28t76 -15.5l-27 -159q-176 4 -250 75.5 t-74 223.5z" />
<glyph unicode="&#xfb03;" horiz-adv-x="2115" d="M164 0v1161q0 205 100.5 316.5t315.5 111.5q84 0 144 -12t85 -23l-35 -163q-25 12 -70 23t-110 11q-133 0 -186.5 -72.5t-53.5 -195.5v-92h410v-160h-410v-905h-190zM963 0v1161q0 205 100.5 316.5t315.5 111.5q72 0 123 -9t73 -17l-26 -164q-23 8 -62 17t-94 9 q-133 0 -186.5 -72.5t-53.5 -195.5v-92h410v-160h-410v-905h-190zM1733 1382q0 57 36 91t87 34t87 -33.5t36 -91.5q0 -57 -36 -91t-87 -34t-87 34t-36 91zM1762 0v1065h190v-1065h-190z" />
<glyph unicode="&#xfb04;" horiz-adv-x="2156" d="M164 0v1161q0 205 100.5 316.5t315.5 111.5q84 0 144 -12t85 -23l-35 -163q-25 12 -70 23t-110 11q-133 0 -186.5 -72.5t-53.5 -195.5v-92h410v-160h-410v-905h-190zM963 0v1161q0 205 100.5 316.5t315.5 111.5q72 0 123 -9t73 -17l-26 -164q-23 8 -62 17t-94 9 q-133 0 -186.5 -72.5t-53.5 -195.5v-92h410v-160h-410v-905h-190zM1757 279v1277l191 33v-1280q0 -47 8 -77.5t26.5 -49t49.5 -28t76 -15.5l-27 -159q-176 4 -250 75.5t-74 223.5z" />
<glyph unicode="&#x9;" horiz-adv-x="473" />
<glyph unicode="&#xd;" horiz-adv-x="473" />
<glyph horiz-adv-x="0" />
<glyph horiz-adv-x="0" />
<glyph horiz-adv-x="0" />
<glyph unicode=" "  horiz-adv-x="473" />
<glyph unicode="&#x09;" horiz-adv-x="473" />
<glyph unicode="&#xa0;" horiz-adv-x="473" />
<glyph unicode="!" horiz-adv-x="565" d="M145 111q0 55 37 96t101 41q63 0 100 -41t37 -96t-37 -96.5t-100 -41.5t-100.5 41.5t-37.5 96.5zM180 1034v385h205v-385q0 -172 -12.5 -312t-30.5 -280h-119q-18 139 -30.5 279.5t-12.5 312.5z" />
<glyph unicode="&#x22;" horiz-adv-x="856" d="M147 1456v100h199v-102q0 -100 -12 -209.5t-31 -218.5h-113q-18 109 -30.5 218.5t-12.5 211.5zM509 1456v100h199v-102q0 -100 -12 -209.5t-31 -218.5h-113q-18 109 -30.5 218.5t-12.5 211.5z" />
<glyph unicode="#" horiz-adv-x="1366" d="M100 375v151h209l70 367h-279v151h310l71 375h172l-71 -375h331l72 375h172l-72 -375h181v-151h-211l-70 -367h281v-151h-310l-71 -375h-172l71 375h-331l-72 -375h-172l72 375h-181zM481 526h332l72 367h-332z" />
<glyph unicode="$" horiz-adv-x="1155" d="M125 119l51 153q61 -29 147.5 -53t213.5 -24q158 0 221 50t63 128q0 57 -27.5 98t-73.5 71.5t-106.5 55.5t-124.5 47q-61 23 -121.5 50.5t-107.5 67.5t-76.5 96t-29.5 138q0 145 87 238.5t253 118.5v235h170v-229q90 -4 167.5 -22.5t122.5 -34.5l-39 -160 q-49 18 -122.5 37.5t-184.5 19.5q-123 0 -189.5 -47t-66.5 -133q0 -47 19.5 -80t56.5 -58.5t87 -46t112 -42.5q80 -31 151.5 -64t125.5 -79t87 -109.5t33 -153.5q0 -145 -88 -234.5t-272 -111.5v-264h-170v258q-143 4 -233.5 31.5t-135.5 52.5z" />
<glyph unicode="%" horiz-adv-x="1757" d="M102 1073q0 92 25 162t69 118t103 72.5t129 24.5t129 -24.5t103.5 -72.5t69 -118t24.5 -162t-24.5 -161.5t-69 -118t-103.5 -73t-129 -24.5t-129 24.5t-103 73t-69 118t-25 161.5zM262 1073q0 -111 43 -173t123 -62t123 62.5t43 172.5q0 111 -43 173.5t-123 62.5 t-123 -62.5t-43 -173.5zM385 0l801 1419h186l-801 -1419h-186zM1004 346q0 92 24.5 162t68.5 118t103.5 72.5t128.5 24.5q70 0 129.5 -24.5t103.5 -72.5t68.5 -118t24.5 -162t-24.5 -161.5t-68.5 -118t-103.5 -73t-129.5 -24.5t-129 24.5t-103 73t-68.5 118t-24.5 161.5z M1163 346q0 -111 43 -173t123 -62t123 62.5t43 172.5q0 111 -43 173.5t-123 62.5t-123 -62.5t-43 -173.5z" />
<glyph unicode="&#x26;" horiz-adv-x="1363" d="M94 377q0 80 24.5 142.5t66.5 112.5t97.5 88t114.5 66q-152 152 -151 314q0 82 27.5 147.5t75.5 110.5t114.5 69.5t146.5 24.5q82 0 146.5 -24.5t108.5 -65.5t66.5 -98.5t22.5 -120.5q0 -72 -23.5 -129.5t-63.5 -104.5t-91 -86t-108 -69l331 -338q70 129 91 286l157 -20 q-8 -84 -42 -183.5t-95 -197.5q72 -78 132.5 -153.5t98.5 -147.5h-200q-25 41 -61 84t-74 86q-84 -84 -195 -136t-254 -52q-133 0 -221 37.5t-142.5 96t-77 128.5t-22.5 133zM285 381q0 -37 14 -80t47 -79t85 -59.5t130 -23.5q100 0 185 37t151 105l-399 403 q-37 -18 -75 -43t-68.5 -60.5t-50 -84.5t-19.5 -115zM424 1114q0 -133 139 -260q45 23 85 49.5t70 61t47 76.5t17 96q0 70 -46 118t-126 48q-90 0 -138 -54.5t-48 -134.5z" />
<glyph unicode="'" horiz-adv-x="493" d="M147 1456v100h199v-102q0 -100 -12 -209.5t-31 -218.5h-113q-18 109 -30.5 218.5t-12.5 211.5z" />
<glyph unicode="(" horiz-adv-x="663" d="M160 612q0 291 97 544t257 448l135 -93q-147 -190 -223 -413.5t-76 -485.5t76 -485t223 -414l-135 -92q-160 195 -257 447.5t-97 543.5z" />
<glyph unicode=")" horiz-adv-x="663" d="M14 -287q147 190 223 413.5t76 485.5t-75.5 485.5t-223.5 413.5l136 93q160 -195 257 -448t97 -544t-97.5 -543.5t-256.5 -447.5z" />
<glyph unicode="*" horiz-adv-x="983" d="M76 1055l57 172l12 -4q84 -29 156 -68t145 -80q-16 84 -31.5 163t-15.5 165v16h185v-16q0 -86 -15.5 -165t-31.5 -163q74 41 145.5 80t155.5 68l12 4l57 -172l-16 -6q-82 -31 -164 -40.5t-168 -15.5q68 -57 127 -111.5t111 -125.5l10 -15l-150 -104l-8 12 q-49 74 -85 146.5t-72 150.5q-37 -78 -73 -150.5t-85 -146.5l-8 -12l-150 104l10 15q51 72 110.5 126t127.5 111q-86 6 -168 15.5t-164 40.5z" />
<glyph unicode="+" horiz-adv-x="1155" d="M109 532v162h387v422h163v-422h388v-162h-388v-423h-163v423h-387z" />
<glyph unicode="," horiz-adv-x="503" d="M78 -279q51 104 67.5 212t16.5 202q0 27 -1 51.5t-3 46.5h207q2 -16 2 -31v-32q0 -129 -38 -255t-104 -241z" />
<glyph unicode="-" horiz-adv-x="612" d="M53 524v178h506v-178h-506z" />
<glyph unicode="." horiz-adv-x="503" d="M115 111q0 55 36.5 96t100.5 41q63 0 100 -41t37 -96t-37 -96.5t-100 -41.5t-100 41.5t-37 96.5z" />
<glyph unicode="/" horiz-adv-x="786" d="M-49 -379l694 1983h191l-691 -1983h-194z" />
<glyph unicode="0" horiz-adv-x="1155" d="M102 711q0 356 126 548.5t350 192.5q223 0 349 -192.5t126 -548.5t-126 -549t-349 -193t-349.5 193t-126.5 549zM303 711q0 -117 13.5 -221.5t45 -182.5t85 -124t131.5 -46t131 46t84.5 124t45 182.5t13.5 221.5t-13.5 221t-45 182t-85 124t-130.5 46q-78 0 -131.5 -46 t-85 -124t-45 -182t-13.5 -221z" />
<glyph unicode="1" horiz-adv-x="1155" d="M190 1126q117 45 227.5 116t203.5 177h135v-1419h-191v1155q-25 -23 -60.5 -47.5t-77.5 -47t-88 -43t-89 -34.5z" />
<glyph unicode="2" horiz-adv-x="1155" d="M115 1282q18 20 55 50t88 56.5t114.5 45t137.5 18.5q223 0 334.5 -103.5t111.5 -291.5q0 -74 -29.5 -142.5t-78.5 -135t-110.5 -131t-123.5 -126.5q-35 -35 -81 -82t-86.5 -98t-68.5 -98t-28 -82h654v-162h-861q-2 12 -2 25v22q0 96 32 179t83 157t114.5 139.5 t125.5 126.5q51 49 97 97.5t82 96.5t57.5 99t21.5 109q0 61 -19.5 104t-52.5 71.5t-77 42t-93 13.5q-59 0 -108.5 -16.5t-88.5 -38t-65.5 -45t-40.5 -35.5z" />
<glyph unicode="3" horiz-adv-x="1155" d="M113 43l37 166q35 -16 115.5 -43t197.5 -27q182 0 261 72t79 192q0 78 -33 131.5t-86 85t-124 45t-144 13.5h-49v156h67q51 0 105.5 10t99.5 36.5t73.5 72.5t28.5 116q0 57 -20.5 98t-54 68t-77.5 38t-93 11q-98 0 -167 -28.5t-116 -59.5l-74 145q25 16 63 36t85 36.5 t101 27.5t114 11q113 0 194.5 -27.5t135 -78t80 -119t26.5 -148.5q0 -111 -63.5 -189.5t-153.5 -119.5q55 -16 106.5 -47t89 -78t61 -108.5t23.5 -137.5q0 -92 -31.5 -170.5t-98 -136t-167 -90.5t-237.5 -33q-53 0 -109.5 8.5t-105.5 20.5t-86 24.5t-53 20.5z" />
<glyph unicode="4" horiz-adv-x="1155" d="M82 362v130q39 90 106.5 209.5t152.5 246.5t182.5 250t195.5 221h182v-901h168v-156h-168v-362h-184v362h-635zM266 518h451v676q-61 -66 -124 -146.5t-122 -168.5t-111.5 -180.5t-93.5 -180.5z" />
<glyph unicode="5" horiz-adv-x="1155" d="M133 43l37 166q35 -16 113.5 -43t193.5 -27q92 0 154.5 20.5t101.5 55.5t56.5 81t17.5 97q0 78 -26.5 138.5t-94.5 101.5t-180.5 62.5t-284.5 21.5q12 100 19.5 188t13.5 172t10 167t8 175h684v-162h-518q-2 -31 -6 -83t-8 -108t-8 -109.5t-8 -84.5q309 -12 453.5 -135 t144.5 -334q0 -94 -32 -173.5t-96.5 -137t-163 -90.5t-233.5 -33q-53 0 -108.5 8.5t-102.5 20.5t-84 24.5t-53 20.5z" />
<glyph unicode="6" horiz-adv-x="1155" d="M129 569q0 207 57.5 366t163 267.5t256 164.5t338.5 58l14 -159q-121 -2 -220 -27t-177 -78t-131 -138t-80 -210q53 25 120 41t138 16q121 0 205 -36.5t137.5 -97t77 -139.5t23.5 -165q0 -78 -27 -160t-81 -149.5t-138 -110.5t-199 -43q-233 0 -355 159.5t-122 440.5z M328 569q0 -90 12 -170t44 -140t85 -96t135 -36q68 0 115 28.5t77.5 73.5t44 97.5t13.5 101.5q0 139 -66.5 213t-199.5 74q-72 0 -133.5 -13.5t-122.5 -39.5q-2 -23 -3 -46.5t-1 -46.5z" />
<glyph unicode="7" horiz-adv-x="1155" d="M123 1253v166h903v-157q-68 -78 -149.5 -214.5t-154.5 -305.5t-125 -360.5t-65 -381.5h-198q12 164 58 345t113.5 352t148.5 317.5t159 238.5h-690z" />
<glyph unicode="8" horiz-adv-x="1155" d="M113 358q0 59 19.5 113.5t51 102t73.5 85t89 66.5q-201 115 -201 338q0 78 31 148.5t87 124t136 85t179 31.5q115 0 196.5 -35t134 -89t76 -119.5t23.5 -127.5q0 -59 -17.5 -111t-47.5 -97.5t-67.5 -80t-78.5 -61.5q242 -115 245 -362q0 -86 -29.5 -159t-88 -127 t-146.5 -84t-203 -30q-133 0 -222 38t-142 95.5t-75.5 126t-22.5 129.5zM305 356q0 -37 13.5 -76.5t46 -73.5t84 -56.5t129.5 -22.5q70 0 122 20.5t84.5 52t49 72.5t16.5 84q0 66 -24.5 115t-70.5 86t-110.5 62.5t-146.5 44.5q-92 -51 -142.5 -127.5t-50.5 -180.5zM336 1077 q0 -45 16.5 -90t51 -84t91 -69.5t134.5 -49.5q86 51 137 120t51 179q0 31 -13 68t-42 68.5t-74 53t-110 21.5q-66 0 -112 -20.5t-75 -52t-42 -69.5t-13 -75z" />
<glyph unicode="9" horiz-adv-x="1155" d="M104 991q0 76 27 158t81 149.5t138 110.5t199 43q117 0 206 -41t149.5 -119t91 -189.5t30.5 -250.5q0 -422 -210 -638t-623 -218l-7 160q129 0 232.5 24.5t181.5 78.5t130 140t77 211q-53 -25 -121 -40t-139 -15q-121 0 -205 36t-137 96.5t-77 139t-24 164.5zM301 995 q0 -139 66.5 -211.5t199.5 -72.5q72 0 135.5 13t122.5 40q2 23 2 44v44q0 88 -12 169t-44 141.5t-85 96t-135 35.5q-68 0 -115 -28.5t-77.5 -72.5t-44 -96.5t-13.5 -101.5z" />
<glyph unicode=":" horiz-adv-x="503" d="M115 111q0 55 36.5 96t100.5 41q63 0 100 -41t37 -96t-37 -96.5t-100 -41.5t-100 41.5t-37 96.5zM115 928q0 55 36.5 96t100.5 41q63 0 100 -41t37 -96t-37 -96.5t-100 -41.5t-100 41.5t-37 96.5z" />
<glyph unicode=";" horiz-adv-x="503" d="M78 -279q51 104 67.5 212t16.5 202q0 27 -1 51.5t-3 46.5h207q2 -16 2 -31v-32q0 -129 -38 -255t-104 -241zM115 928q0 55 36.5 96t100.5 41q63 0 100 -41t37 -96t-37 -96.5t-100 -41.5t-100 41.5t-37 96.5z" />
<glyph unicode="&#x3c;" horiz-adv-x="1155" d="M109 530v164l884 375l54 -158l-728 -299l728 -299l-54 -157z" />
<glyph unicode="=" horiz-adv-x="1155" d="M109 313v162h938v-162h-938zM109 750v161h938v-161h-938z" />
<glyph unicode="&#x3e;" horiz-adv-x="1155" d="M109 313l727 299l-727 299l53 158l885 -375v-164l-885 -374z" />
<glyph unicode="?" horiz-adv-x="827" d="M39 1370q70 37 157 59.5t185 22.5q117 0 191.5 -31.5t119.5 -81t62.5 -110t17.5 -115.5q0 -70 -26.5 -124t-65.5 -101t-86 -90t-86 -89t-65.5 -100.5t-26.5 -122.5v-22q0 -12 2 -23h-160q-8 41 -8 86q0 66 23.5 119t60.5 99.5t78 86t77.5 80.5t60 86t23.5 99 q0 86 -55 140t-162 54q-135 0 -264 -69zM211 111q0 55 37 96t100 41t100 -41t37 -96t-36.5 -96.5t-100.5 -41.5q-63 0 -100 41.5t-37 96.5z" />
<glyph unicode="@" horiz-adv-x="1945" d="M133 569q0 221 69.5 387t187.5 275.5t272.5 165t326.5 55.5q168 0 317.5 -54.5t262 -157.5t178 -249.5t65.5 -331.5q0 -139 -31.5 -245.5t-85 -179t-127 -109.5t-155.5 -37q-66 0 -108.5 18.5t-71.5 49.5q-45 -25 -108.5 -42.5t-127.5 -17.5q-98 0 -179 31t-140.5 91.5 t-92 148.5t-32.5 204q0 98 30.5 185.5t91 152t147.5 101.5t198 37q104 0 191 -16.5t135 -33.5v-626q0 -66 22.5 -92.5t58.5 -26.5q53 0 93.5 37t66 96t37.5 134t12 153q0 129 -45 242.5t-129 199.5t-203.5 135t-269.5 49t-274.5 -50t-214.5 -143t-140.5 -228.5t-50.5 -307.5 q0 -180 53.5 -316t148.5 -227.5t225 -137.5t286 -46q121 0 199.5 14.5t101.5 22.5l20 -151q-35 -12 -126 -26.5t-195 -14.5q-182 0 -344 52t-283 159.5t-191.5 274.5t-70.5 396zM745 571q0 -145 70 -231t189 -86q43 0 87 9t78 28q-6 27 -8 53.5t-2 50.5v482q-12 4 -47 8 t-78 4q-145 0 -217 -90.5t-72 -227.5z" />
<glyph unicode="A" horiz-adv-x="1357" d="M16 0q82 225 154 416.5t140.5 363.5t136 329t141.5 310h182q74 -154 141.5 -310.5t136 -328.5t140.5 -363.5t153 -416.5h-217q-35 92 -65.5 181t-63.5 181h-643l-129 -362h-207zM410 526h528q-66 178 -130.5 345t-133.5 321q-72 -154 -136.5 -321t-127.5 -345z" />
<glyph unicode="B" horiz-adv-x="1316" d="M176 23v1376q41 10 90 16t99.5 10.5t99.5 6.5t92 2q123 0 230.5 -18.5t186.5 -62.5t124 -116t45 -176q0 -117 -55.5 -191.5t-147.5 -111.5q125 -37 198.5 -117t73.5 -225q0 -213 -156.5 -320.5t-496.5 -107.5q-43 0 -93 2t-100.5 6t-99.5 10.5t-90 16.5zM373 162 q23 -2 53 -4q27 -2 62.5 -3t82.5 -1q88 0 167 11t138.5 39.5t95.5 80t36 129.5q0 70 -27 118t-77 76.5t-119.5 41t-155.5 12.5h-256v-500zM373 821h209q74 0 139 10.5t113.5 37t76 69.5t27.5 109q0 61 -28.5 103t-79 67.5t-118 38t-143.5 12.5t-118.5 -2t-77.5 -6v-439z" />
<glyph unicode="C" horiz-adv-x="1269" d="M119 711q0 178 54 316t146.5 232.5t215 143.5t262.5 49q88 0 158.5 -12.5t122.5 -28.5t85 -32.5t45 -24.5l-57 -164q-18 12 -53 26.5t-79 29t-96.5 23.5t-105.5 9q-113 0 -203 -39t-153.5 -112.5t-97 -179t-33.5 -236.5q0 -127 29.5 -231.5t89 -179.5t148.5 -116t208 -41 q137 0 227 29t135 51l52 -164q-14 -10 -51.5 -25.5t-92.5 -29.5t-129 -24.5t-160 -10.5q-150 0 -272.5 49.5t-210.5 143.5t-136 232.5t-48 316.5z" />
<glyph unicode="D" horiz-adv-x="1460" d="M176 23v1376q84 20 187.5 27.5t189.5 7.5q174 0 319.5 -44t250 -133.5t161.5 -225.5t57 -320t-57 -320.5t-161.5 -225.5t-250 -133t-319.5 -44q-86 0 -189.5 7.5t-187.5 27.5zM375 168q18 -2 64 -4t130 -2q283 0 422 144.5t139 404.5t-139 404.5t-422 144.5 q-84 0 -130 -2.5t-64 -4.5v-1085z" />
<glyph unicode="E" horiz-adv-x="1169" d="M176 0v1419h866v-170h-667v-422h594v-165h-594v-492h719v-170h-918z" />
<glyph unicode="F" horiz-adv-x="1099" d="M176 0v1419h856v-170h-657v-428h583v-168h-583v-653h-199z" />
<glyph unicode="G" horiz-adv-x="1376" d="M119 711q0 178 54 316t146.5 232.5t216 143.5t265.5 49q96 0 171 -12.5t128 -28.5t87 -32.5t46 -24.5l-64 -166q-59 39 -157.5 64.5t-200.5 25.5q-109 0 -198 -39t-151.5 -112.5t-97 -179t-34.5 -236.5q0 -127 29.5 -231.5t90 -179.5t149.5 -116t210 -41q86 0 146.5 9.5 t86.5 17.5v528h199v-663q-25 -8 -71 -18.5t-106 -20.5t-132 -17.5t-146 -7.5q-150 0 -272.5 49.5t-210.5 143.5t-136 231.5t-48 315.5z" />
<glyph unicode="H" horiz-adv-x="1443" d="M176 0v1419h199v-592h694v592h199v-1419h-199v655h-694v-655h-199z" />
<glyph unicode="I" horiz-adv-x="550" d="M176 0v1419h199v-1419h-199z" />
<glyph unicode="J" horiz-adv-x="1024" d="M16 84l78 158q43 -31 111.5 -65t171.5 -34q147 0 214.5 75t67.5 257v944h199v-962q0 -102 -21.5 -190.5t-75.5 -155t-145.5 -104.5t-228.5 -38q-70 0 -128 11.5t-105.5 29t-82.5 37t-55 37.5z" />
<glyph unicode="K" horiz-adv-x="1288" d="M176 0v1419h199v-626q72 68 157.5 152.5t169.5 170.5t159 165t126 138h240q-63 -70 -143 -154.5t-167.5 -174t-173.5 -175.5t-161 -159q88 -61 186 -151.5t192.5 -193t177.5 -209t138 -202.5h-234q-61 96 -141 193.5t-169 186.5t-180 165t-177 129v-674h-199z" />
<glyph unicode="L" horiz-adv-x="1062" d="M176 0v1419h199v-1247h655v-172h-854z" />
<glyph unicode="M" horiz-adv-x="1783" d="M137 0q8 184 18.5 371.5t24 369t28.5 353.5t34 325h174q55 -90 118.5 -213t127 -257t123 -268t108.5 -245q49 111 108.5 245t123 268t127 257t118.5 213h174q70 -686 105 -1419h-195q-10 287 -24.5 568.5t-36.5 523.5q-20 -35 -54 -100.5t-73 -148.5t-83 -176.5 t-83 -181.5t-73 -163.5t-54 -124.5h-160q-20 49 -54 124.5t-73 163.5t-83 181.5t-83 176.5t-72.5 148.5t-54.5 100.5q-23 -242 -37 -523.5t-24 -568.5h-195z" />
<glyph unicode="N" horiz-adv-x="1490" d="M176 0v1419h158q96 -102 205.5 -238.5t217 -280.5t203 -283.5t160.5 -247.5v1050h195v-1419h-166q-45 76 -103.5 170t-126 195.5t-140 206t-144.5 201.5t-139.5 183t-124.5 152v-1108h-195z" />
<glyph unicode="O" horiz-adv-x="1593" d="M119 711q0 182 54 321t147.5 232.5t217.5 140.5t263 47q137 0 259 -47t214 -140.5t146.5 -232.5t54.5 -321t-54.5 -321.5t-146.5 -233t-214 -140.5t-259 -47q-139 0 -263 47t-217.5 140.5t-147.5 233t-54 321.5zM328 711q0 -129 32.5 -234.5t93 -179.5t147.5 -114 t196 -40t194.5 40t146 114t93.5 179.5t33 234.5t-33 234.5t-93.5 179t-146.5 113.5t-194 40q-109 0 -196 -40t-147.5 -113.5t-93 -179t-32.5 -234.5z" />
<glyph unicode="P" horiz-adv-x="1245" d="M176 0v1399q84 20 187.5 27.5t189.5 7.5q299 0 460 -114t161 -339q0 -123 -44.5 -210t-127 -141.5t-201.5 -79t-269 -24.5h-157v-526h-199zM375 696h149q102 0 184.5 13.5t138.5 45t87 87t31 141.5q0 82 -32 135t-86 85t-126 44.5t-152 12.5q-127 0 -194 -7v-557z" />
<glyph unicode="Q" horiz-adv-x="1593" d="M119 711q0 182 54 321t147.5 232.5t217.5 140.5t263 47q137 0 259 -47t214 -140.5t146.5 -232.5t54.5 -321q0 -160 -41 -285t-114 -216t-170 -147.5t-208 -76.5q2 -47 42 -83t101.5 -60.5t137 -41t151.5 -24.5l-47 -156q-106 14 -203.5 38t-176.5 62.5t-132 99t-72 150.5 q-129 8 -243.5 60.5t-198.5 145.5t-133 226.5t-49 307.5zM328 711q0 -129 32.5 -234.5t93 -179.5t147.5 -114t196 -40t194.5 40t146 114t93.5 179.5t33 234.5t-33 234.5t-93.5 179t-146.5 113.5t-194 40q-109 0 -196 -40t-147.5 -113.5t-93 -179t-32.5 -234.5z" />
<glyph unicode="R" horiz-adv-x="1288" d="M176 0v1399q84 20 187.5 27.5t189.5 7.5q299 0 455.5 -113t156.5 -336q0 -141 -74.5 -241.5t-220.5 -149.5q33 -41 83.5 -107.5t103.5 -147.5t105 -169t89 -170h-217q-41 78 -89 158t-97 152.5t-97.5 136t-86.5 110.5q-27 -2 -55 -2h-56h-178v-555h-199zM375 719h141 q102 0 184 10t138.5 39t87 81t30.5 138q0 80 -30.5 133.5t-82.5 84t-123 43t-151 12.5q-127 0 -194 -7v-534z" />
<glyph unicode="S" horiz-adv-x="1089" d="M68 70l59 163q47 -27 143.5 -59.5t235.5 -32.5q311 0 311 213q0 66 -27.5 112t-74.5 80t-107.5 58.5t-128.5 48.5q-78 27 -147.5 61t-120.5 80t-81 109.5t-30 153.5q0 186 127 290.5t351 104.5q129 0 234.5 -27.5t154.5 -60.5l-64 -162q-43 27 -128 52.5t-197 25.5 q-57 0 -106.5 -12.5t-86.5 -37t-58.5 -62.5t-21.5 -89q0 -57 22.5 -96t63.5 -68.5t95.5 -54t119.5 -49.5q92 -37 169 -74t133.5 -88t87 -121.5t30.5 -171.5q0 -186 -136 -286.5t-384 -100.5q-84 0 -154.5 11.5t-126 27t-95 33t-62.5 29.5z" />
<glyph unicode="T" horiz-adv-x="1157" d="M33 1247v172h1091v-172h-446v-1247h-199v1247h-446z" />
<glyph unicode="U" horiz-adv-x="1409" d="M166 528v891h199v-868q0 -213 94 -309.5t246 -96.5q76 0 138 24t107 73t69.5 125.5t24.5 183.5v868h199v-891q0 -119 -31.5 -221t-98 -177t-168 -118t-240.5 -43t-242 43t-168.5 118t-97 177t-31.5 221z" />
<glyph unicode="V" horiz-adv-x="1343" d="M20 1419h220q111 -324 217 -622.5t219 -560.5q113 260 219 560t215 623h213q-78 -225 -148.5 -416.5t-138 -363.5t-134 -328.5t-136.5 -310.5h-186q-70 154 -136.5 310.5t-135 328.5t-140.5 363.5t-148 416.5z" />
<glyph unicode="W" horiz-adv-x="1902" d="M57 1419h209q29 -160 59.5 -319.5t63.5 -310t65.5 -287.5t67.5 -254q82 215 174 472t172 531h172q80 -274 174.5 -531t176.5 -472q33 115 65.5 252t64 287.5t62.5 311.5t59 320h203q-74 -410 -156.5 -758t-189.5 -661h-199q-90 221 -176 454.5t-172 508.5 q-86 -274 -174 -508t-176 -455h-199q-109 313 -191.5 661t-154.5 758z" />
<glyph unicode="X" horiz-adv-x="1292" d="M47 0q92 180 214 366.5t259 383.5l-454 669h229l350 -528l346 528h228l-447 -661q139 -199 262 -387.5t217 -370.5h-223q-31 61 -74 136t-94 156t-106.5 162t-106.5 152q-51 -72 -106.5 -152.5t-105.5 -161.5t-94 -156t-75 -136h-219z" />
<glyph unicode="Y" horiz-adv-x="1224" d="M12 1419h234q78 -168 174 -341t198 -333q100 160 196.5 333t176.5 341h221q-111 -205 -235.5 -416.5t-263.5 -429.5v-573h-199v569q-141 219 -266 432t-236 418z" />
<glyph unicode="Z" horiz-adv-x="1173" d="M68 0v133q43 82 101 180.5t124.5 200.5t138.5 206.5t142.5 201t137 180.5t122.5 147h-730v170h973v-157q-47 -53 -109.5 -128t-132 -166t-143.5 -192.5t-144.5 -205t-134 -206t-114.5 -194.5h799v-170h-1030z" />
<glyph unicode="[" horiz-adv-x="673" d="M197 -379v1983h460v-150h-282v-1683h282v-150h-460z" />
<glyph unicode="\" horiz-adv-x="786" d="M-49 1604h190l695 -1983h-195z" />
<glyph unicode="]" horiz-adv-x="673" d="M16 -229h283v1683h-283v150h461v-1983h-461v150z" />
<glyph unicode="^" horiz-adv-x="1155" d="M96 723l398 696h168l397 -696l-152 -78l-329 578l-330 -578z" />
<glyph unicode="_" horiz-adv-x="1007" d="M-8 -217h1024v-162h-1024v162z" />
<glyph unicode="`" horiz-adv-x="770" d="M125 1468l123 121l262 -315l-96 -86z" />
<glyph unicode="a" horiz-adv-x="1069" d="M88 317q0 88 36 151.5t97.5 102.5t143 57.5t172.5 18.5q29 0 59.5 -3t58 -8t48 -9t28.5 -6v53q0 47 -10 93t-37 82t-73 57.5t-119 21.5q-94 0 -165 -13.5t-106 -27.5l-22 157q37 16 123 32t186 16q115 0 193.5 -30t127 -84t69 -129t20.5 -165v-666q-25 -4 -69 -11 t-99.5 -13t-120 -11.5t-127.5 -5.5q-90 0 -166 18.5t-131 58.5t-86 105.5t-31 157.5zM281 319q0 -102 65.5 -142t177.5 -40q68 0 120 3t87 12v317q-20 10 -66.5 17.5t-111.5 7.5q-43 0 -91 -6.5t-88 -26t-66.5 -53.5t-26.5 -89z" />
<glyph unicode="b" horiz-adv-x="1206" d="M164 31v1525l190 33v-571q35 23 105.5 47.5t163.5 24.5q115 0 203.5 -41t150 -115t93.5 -176.5t32 -225.5q0 -129 -38 -232t-107.5 -175t-168 -111t-221.5 -39q-133 0 -235 19t-168 37zM354 166q29 -8 81 -15.5t130 -7.5q154 0 246 101.5t92 287.5q0 82 -16.5 154 t-53 124t-95 82t-140.5 30q-78 0 -143.5 -27t-100.5 -55v-674z" />
<glyph unicode="c" horiz-adv-x="952" d="M104 530q0 123 36 225.5t101.5 177.5t161 117t211.5 42q72 0 143.5 -12.5t137.5 -39.5l-43 -161q-43 20 -99.5 32.5t-119.5 12.5q-160 0 -245 -100.5t-85 -293.5q0 -86 19.5 -157.5t61.5 -122.5t107.5 -79t159.5 -28q76 0 137.5 14.5t96.5 30.5l26 -159 q-16 -10 -46.5 -19.5t-69.5 -16.5t-83 -12.5t-85 -5.5q-129 0 -226.5 41t-164 115t-99.5 175t-33 224z" />
<glyph unicode="d" horiz-adv-x="1206" d="M104 532q0 123 32 225.5t93.5 176.5t150.5 115t204 41q92 0 162.5 -25t105.5 -47v538l190 33v-1558q-66 -18 -168 -37t-235 -19q-123 0 -221.5 39t-168 111t-107.5 175t-38 232zM303 532q0 -186 92 -287.5t246 -101.5q78 0 130 7.5t81 15.5v674q-35 29 -100.5 55.5 t-143.5 26.5q-82 0 -140 -30t-95 -82t-53.5 -124t-16.5 -154z" />
<glyph unicode="e" horiz-adv-x="1144" d="M104 530q0 141 41 247t109 175.5t156 104.5t180 35q215 0 329.5 -134.5t114.5 -408.5v-32q0 -19 -2 -36h-729q12 -166 96 -252t263 -86q100 0 168.5 17.5t103.5 34.5l27 -160q-35 -18 -122 -39t-198 -21q-139 0 -240.5 42t-167 116t-97.5 175t-32 222zM307 635h529 q2 129 -64.5 212t-183.5 83q-66 0 -116 -25.5t-85 -66.5t-54.5 -94.5t-25.5 -108.5z" />
<glyph unicode="f" horiz-adv-x="790" d="M164 0v1161q0 205 100.5 316.5t315.5 111.5q84 0 144 -12t85 -23l-35 -163q-25 12 -70 23t-110 11q-133 0 -186.5 -72.5t-53.5 -195.5v-92h410v-160h-410v-905h-190z" />
<glyph unicode="g" horiz-adv-x="1183" d="M104 555q0 117 35 214t101.5 168t163 110.5t217.5 39.5q133 0 232 -19t167 -36v-950q0 -246 -127 -356.5t-385 -110.5q-100 0 -189.5 16.5t-154.5 38.5l35 166q57 -23 140 -40t173 -17q170 0 244.5 67.5t74.5 214.5v45q-25 -16 -95 -41.5t-165 -25.5q-96 0 -181 30.5 t-148.5 95t-100.5 161t-37 229.5zM303 553q0 -92 23.5 -157.5t63.5 -108.5t92.5 -63.5t107.5 -20.5q76 0 139.5 21.5t99.5 49.5v623q-29 8 -76.5 15.5t-129.5 7.5q-154 0 -237 -100.5t-83 -266.5z" />
<glyph unicode="h" horiz-adv-x="1169" d="M164 0v1556l190 33v-545q53 20 113.5 31.5t120.5 11.5q127 0 211 -35.5t134 -100t70.5 -154.5t20.5 -199v-598h-190v557q0 98 -13.5 168t-44.5 113t-82 62.5t-127 19.5q-31 0 -63.5 -4.5t-62 -9.5t-53 -11t-34.5 -10v-885h-190z" />
<glyph unicode="i" horiz-adv-x="518" d="M135 1382q0 57 36 91t87 34t87 -33.5t36 -91.5q0 -57 -36 -91t-87 -34t-87 34t-36 91zM164 0v1065h190v-1065h-190z" />
<glyph unicode="j" horiz-adv-x="518" d="M-139 -360l24 155q20 -6 47 -10t50 -4q98 0 140 60.5t42 176.5v1047h190v-1045q0 -205 -93 -304t-271 -99q-25 0 -63.5 6.5t-65.5 16.5zM135 1382q0 57 36 91t87 34t87 -33.5t36 -91.5q0 -57 -36 -91t-87 -34t-87 34t-36 91z" />
<glyph unicode="k" horiz-adv-x="1069" d="M164 0v1556l190 33v-971l109 109q59 59 116.5 120.5t108.5 118t88 99.5h223q-47 -51 -102 -112.5t-114.5 -124t-120 -125t-113.5 -117.5q61 -47 130 -117t135.5 -150.5t125.5 -163.5t100 -155h-223q-43 72 -99 146.5t-117.5 143t-125 126t-121.5 96.5v-512h-190z" />
<glyph unicode="l" horiz-adv-x="559" d="M160 279v1277l190 33v-1280q0 -47 8.5 -77.5t26.5 -49t49 -28t76 -15.5l-27 -159q-176 4 -249.5 75.5t-73.5 223.5z" />
<glyph unicode="m" horiz-adv-x="1763" d="M164 0v1034q66 16 173 34.5t249 18.5q102 0 171.5 -27.5t116.5 -80.5q14 10 45 28.5t76 36t100.5 30.5t118.5 13q123 0 201 -35.5t122 -101t59.5 -155.5t15.5 -197v-598h-191v557q0 94 -9 161.5t-34.5 113t-69.5 67t-114 21.5q-96 0 -158.5 -26t-85.5 -46 q16 -53 24.5 -116.5t8.5 -133.5v-598h-190v557q0 94 -10.5 161.5t-36 113t-69.5 67t-112 21.5q-29 0 -61.5 -2.5t-62 -5.5t-54.5 -7t-33 -6v-899h-190z" />
<glyph unicode="n" d="M164 0v1034q66 16 174 34.5t250 18.5q127 0 211 -35.5t134 -100t70.5 -154.5t20.5 -199v-598h-190v557q0 98 -13.5 168t-44.5 113t-82 62.5t-127 19.5q-31 0 -63.5 -2.5t-62 -5.5t-53 -7t-34.5 -6v-899h-190z" />
<glyph unicode="o" horiz-adv-x="1208" d="M104 532q0 125 37 228.5t103.5 177.5t159 114t200.5 40q109 0 201 -40t158.5 -114t103.5 -177.5t37 -228.5q0 -127 -37 -229t-103.5 -176t-158.5 -114t-201 -40t-201 40t-158.5 114t-103.5 176t-37 229zM303 532q0 -180 81 -285.5t220 -105.5t220 105.5t81 285.5t-81 286 t-220 106t-220 -106t-81 -286z" />
<glyph unicode="p" horiz-adv-x="1206" d="M164 -379v1411q68 16 169 35.5t234 19.5q123 0 221.5 -38.5t168 -110.5t107.5 -175.5t38 -232.5q0 -121 -32 -223t-93.5 -176t-150.5 -115t-203 -41q-92 0 -163 25t-106 47v-426h-190zM354 225q35 -29 100.5 -55.5t143.5 -26.5q82 0 140.5 30t95 82t53 123t16.5 152 q0 186 -92 287t-246 101q-86 0 -134 -6.5t-77 -14.5v-672z" />
<glyph unicode="q" horiz-adv-x="1206" d="M104 530q0 129 38 232.5t107.5 175.5t168 110.5t221.5 38.5q133 0 234.5 -19t168.5 -36v-1411h-190v426q-35 -23 -105.5 -47.5t-162.5 -24.5q-115 0 -204 41t-150.5 115t-93.5 176t-32 223zM303 530q0 -82 16.5 -152.5t53.5 -122.5t95 -82t140 -30q78 0 143.5 27 t100.5 55v672q-29 8 -77 14.5t-134 6.5q-154 0 -246 -101t-92 -287z" />
<glyph unicode="r" horiz-adv-x="790" d="M164 0v1020q68 25 168 46t225 21q25 0 56.5 -3t62.5 -8t56.5 -10t37.5 -9l-33 -166q-23 8 -75 19.5t-134 11.5q-53 0 -105 -11.5t-69 -15.5v-895h-190z" />
<glyph unicode="s" horiz-adv-x="913" d="M82 35l35 164q33 -12 104.5 -37t190.5 -25q117 0 173 31t56 98q0 70 -55.5 111t-182.5 92q-61 25 -117.5 50.5t-97.5 60t-65.5 84t-24.5 120.5q0 141 104.5 224.5t284.5 83.5q45 0 90.5 -5.5t84 -12.5t68.5 -15t46 -15l-35 -163q-31 16 -96 33.5t-158 17.5 q-80 0 -139 -32t-59 -99q0 -35 13 -61.5t41 -48t69 -40t98 -39.5q76 -29 135.5 -56.5t101 -64t64.5 -89t23 -128.5q0 -147 -110 -223t-312 -76q-141 0 -221 24t-109 36z" />
<glyph unicode="t" horiz-adv-x="823" d="M152 412v950l190 33v-330h403v-160h-403v-491q0 -80 12.5 -132.5t37 -82t61 -42t86.5 -12.5q86 0 138 19.5t73 28.5l36 -158q-29 -14 -100.5 -36t-163.5 -22q-109 0 -179.5 28t-113.5 83t-60 136.5t-17 187.5z" />
<glyph unicode="u" d="M152 467v598h190v-557q0 -195 61.5 -279t206.5 -84q31 0 64 2.5t61.5 5.5t52 6t33.5 7v899h191v-1034q-66 -16 -173.5 -35t-248.5 -19q-123 0 -207 36t-135 101.5t-73.5 154.5t-22.5 198z" />
<glyph unicode="v" horiz-adv-x="1028" d="M33 1065h205q25 -100 58.5 -214t71.5 -225.5t76.5 -216t73.5 -186.5q35 82 74 186.5t77 216t71.5 225.5t58.5 214h196q-80 -299 -187.5 -573.5t-207.5 -491.5h-172q-100 217 -207.5 491.5t-187.5 573.5z" />
<glyph unicode="w" horiz-adv-x="1591" d="M37 1065h205q20 -96 48.5 -209t60.5 -225.5t67 -217t65 -182.5q35 96 69 204t64.5 217.5t58 215t48.5 197.5h158q18 -92 44.5 -197.5t57.5 -215t64.5 -217t68.5 -204.5q31 78 64.5 182.5t66.5 217t61.5 225.5t49.5 209h196q-80 -313 -170 -583.5t-184 -481.5h-166 q-57 147 -121.5 336.5t-117.5 394.5q-53 -205 -117 -394.5t-121 -336.5h-166q-94 211 -184 481.5t-170 583.5z" />
<glyph unicode="x" horiz-adv-x="1046" d="M33 0q72 139 171 283.5t197 275.5l-352 506h215l254 -373l256 373h203l-344 -494q98 -133 201.5 -281.5t175.5 -289.5h-209q-23 45 -55.5 100.5t-71.5 113.5t-80 115.5t-80 108.5q-39 -51 -80 -109.5t-79 -116.5t-70.5 -113.5t-55.5 -98.5h-196z" />
<glyph unicode="y" horiz-adv-x="1017" d="M4 -352l35 153q23 -10 58.5 -19t70.5 -9q113 0 176.5 50t114.5 163q-129 246 -241 521t-185 558h205q23 -92 54.5 -198.5t70 -219t84 -225.5t94.5 -217q78 215 135 426t108 434h197q-74 -301 -164 -578.5t-194 -519.5q-41 -92 -85 -158.5t-97.5 -109.5t-120 -63.5 t-150.5 -20.5q-23 0 -47.5 3t-48 8t-43 11.5t-27.5 10.5z" />
<glyph unicode="z" horiz-adv-x="964" d="M74 0v127q49 90 120.5 198.5t150.5 216t153.5 203t130.5 160.5h-527v160h768v-143q-43 -47 -113.5 -133.5t-151.5 -190.5t-162 -219t-142 -219h586v-160h-813z" />
<glyph unicode="{" horiz-adv-x="681" d="M82 539v147q49 0 84 17.5t58.5 45t34.5 63.5t11 73v368q0 84 18.5 149.5t63.5 109.5t120 68t185 24h9v-150q-117 0 -167 -42t-50 -161v-315q0 -135 -36 -209t-102 -115q66 -41 102 -114.5t36 -208.5v-316q0 -119 50 -160.5t167 -41.5v-150h-9q-111 0 -185.5 22.5 t-119.5 67.5t-63.5 110.5t-18.5 149.5v369q0 37 -11 73t-34.5 63.5t-58.5 45t-84 17.5z" />
<glyph unicode="|" horiz-adv-x="571" d="M197 -379v1983h178v-1983h-178z" />
<glyph unicode="}" horiz-adv-x="681" d="M16 -229q117 0 167 42t50 160v316q0 135 36 208.5t102 114.5q-66 41 -102 115t-36 209v315q0 119 -50 161t-167 42v150h9q111 0 185.5 -24t119.5 -68t63.5 -109.5t18.5 -149.5v-368q0 -37 11 -73t34.5 -63.5t58.5 -45t84 -17.5v-147q-49 0 -84 -17.5t-58.5 -45 t-34.5 -63.5t-11 -73v-369q0 -84 -18.5 -149.5t-63.5 -110.5t-120 -67.5t-185 -22.5h-9v150z" />
<glyph unicode="~" horiz-adv-x="1155" d="M86 496q8 39 26.5 89t50.5 94t82 73.5t122 29.5q61 0 113 -24.5t100 -52.5q55 -33 106 -65t109 -32q33 0 55 15.5t38.5 39t27 51t18.5 54.5l131 -37q-8 -41 -25.5 -90t-50.5 -93t-83 -74t-122 -30q-61 0 -113.5 25t-99.5 53q-55 33 -106 64.5t-109 31.5q-33 0 -55 -15 t-38.5 -38.5t-27 -51.5t-18.5 -54z" />
<glyph unicode="&#xa1;" horiz-adv-x="565" d="M145 928q0 55 37 96t101 41q63 0 100 -41t37 -96t-37 -96t-100 -41t-100.5 41t-37.5 96zM180 4q0 172 12.5 312.5t30.5 279.5h119q18 -139 30.5 -279.5t12.5 -312.5v-383h-205v383z" />
<glyph unicode="&#xa2;" horiz-adv-x="1155" d="M176 596q0 100 27.5 188t78 158t124 117t165.5 65v295h170v-284q119 -6 226 -48l-43 -157q-43 18 -99.5 30.5t-119.5 12.5q-160 0 -245 -96.5t-85 -280.5q0 -82 19.5 -150.5t61.5 -117.5t107.5 -76t159.5 -27q76 0 137.5 14.5t95.5 28.5l27 -155q-29 -16 -98.5 -31.5 t-143.5 -20.5v-284h-170v295q-98 18 -171.5 64t-123 114.5t-75 157t-25.5 188.5z" />
<glyph unicode="&#xa3;" horiz-adv-x="1155" d="M123 610v154h190v170q0 152 32 251t90.5 157.5t140 81t180.5 22.5q90 0 151.5 -16.5t118.5 -38.5l-47 -164q-109 51 -231 51q-55 0 -100.5 -16.5t-77 -55.5t-49 -104.5t-17.5 -163.5v-174h387v-154h-387v-16q0 -102 -8.5 -215t-24.5 -215h592v-164h-807q23 145 40 289.5 t17 290.5v30h-190z" />
<glyph unicode="&#xa4;" horiz-adv-x="1155" d="M90 342l150 150q-57 92 -58 219q0 125 58 217l-150 151l119 119l151 -154q96 59 218 60q121 0 215 -60l153 154l119 -119l-152 -151q29 -45 44.5 -99.5t15.5 -117.5q0 -66 -15.5 -119t-44.5 -98l152 -152l-119 -119l-153 152q-98 -57 -215 -58q-59 0 -114.5 14.5 t-103.5 43.5l-151 -152zM336 711q0 -59 19.5 -105.5t52 -80t76.5 -51t94 -17.5q49 0 93 17.5t76.5 51t52 79.5t19.5 106q0 57 -19.5 104t-52 81t-76.5 51.5t-93 17.5t-93.5 -17.5t-77 -51.5t-52 -81t-19.5 -104z" />
<glyph unicode="&#xa5;" horiz-adv-x="1155" d="M35 1419h211q74 -160 160 -319.5t178 -306.5q90 147 173 307t158 319h207q-90 -170 -189 -347t-210 -355h281v-146h-332v-209h332v-145h-332v-217h-187v217h-331v145h331v209h-331v146h278q-111 180 -210 357t-187 345z" />
<glyph unicode="&#xa6;" horiz-adv-x="571" d="M197 -379v785h178v-785h-178zM197 819v785h178v-785h-178z" />
<glyph unicode="&#xa7;" horiz-adv-x="1007" d="M88 633q0 53 17.5 99t43 84t58.5 65.5t63 46.5q-51 41 -80.5 94t-29.5 123q0 141 99 224t280 83q104 0 194 -20.5t144 -36.5l-43 -158q-49 18 -120 38.5t-177 20.5q-80 0 -138.5 -33.5t-58.5 -101.5q0 -37 12.5 -62.5t39 -47t67.5 -40t98 -36.5q74 -25 140.5 -53.5 t116.5 -69.5t79 -98.5t29 -139.5q0 -51 -16.5 -96t-41 -82t-56.5 -66.5t-63 -47.5q59 -43 96.5 -100.5t37.5 -133.5q0 -154 -108.5 -232.5t-309.5 -78.5q-137 0 -226.5 21.5t-142.5 47.5l47 152q61 -27 135 -45.5t189 -18.5t173 34t58 108q0 72 -55 111.5t-186 84.5 q-74 25 -140.5 53.5t-117 69.5t-79 98.5t-28.5 139.5zM262 651q0 -53 23.5 -89t65.5 -63.5t99.5 -49t124.5 -43.5q10 -4 19.5 -7.5t19.5 -7.5q59 39 96.5 90t37.5 115q0 53 -24 89t-65 62.5t-94 47t-114 41.5q-14 4 -27.5 9t-28.5 11q-59 -39 -96 -91.5t-37 -113.5z" />
<glyph unicode="&#xa8;" horiz-adv-x="770" d="M72 1382q0 53 35.5 87t82.5 34t83 -33.5t36 -87.5q0 -53 -35.5 -86.5t-83.5 -33.5q-47 0 -82.5 33.5t-35.5 86.5zM461 1382q0 53 35.5 87t83.5 34q47 0 82.5 -33.5t35.5 -87.5q0 -53 -35.5 -86.5t-82.5 -33.5t-83 33.5t-36 86.5z" />
<glyph unicode="&#xa9;" horiz-adv-x="1667" d="M133 711q0 174 57.5 312t153.5 233.5t223 145.5t267 50q139 0 266 -50t223 -145.5t153.5 -233.5t57.5 -312t-57.5 -312.5t-153.5 -233.5t-223 -145.5t-266 -50.5t-266.5 50.5t-223.5 145.5t-153.5 233.5t-57.5 312.5zM283 711q0 -135 41 -247t113.5 -191.5t174 -123 t222.5 -43.5t222 43.5t174 123t113.5 191t40.5 247.5q0 135 -40.5 246.5t-113.5 191.5t-174.5 123t-221.5 43q-121 0 -222.5 -43t-174 -123t-113.5 -191.5t-41 -246.5zM465 711q0 100 31.5 178t85 132t125 83t151.5 29q53 0 97 -8.5t77 -19.5t54.5 -22.5t29.5 -17.5 l-47 -123q-25 14 -79 33.5t-126 19.5q-104 0 -173.5 -72.5t-69.5 -211.5q0 -127 63.5 -208t185.5 -81q80 0 132.5 17.5t80.5 31.5l39 -123q-10 -6 -33.5 -17.5t-58.5 -20.5t-79 -16t-93 -7q-88 0 -159.5 28.5t-124 82t-81 132.5t-28.5 181z" />
<glyph unicode="&#xaa;" horiz-adv-x="796" d="M78 913q0 63 26.5 108.5t71.5 73t104.5 40t125.5 12.5q29 0 63.5 -2t77.5 -8v6q0 31 -6 61.5t-24.5 54t-51.5 39t-86 15.5q-47 0 -103.5 -6.5t-97.5 -20.5l-20 129q39 10 101.5 20.5t127.5 10.5q84 0 141.5 -20.5t93 -57.5t51 -89t15.5 -118v-459q-49 -10 -133 -19 t-168 -9q-68 0 -124 13t-97 42t-64.5 73.5t-23.5 110.5zM221 913q0 -61 48 -86.5t132 -25.5q45 0 90.5 2t55.5 6v205q-23 4 -57.5 6t-67.5 2q-35 0 -71 -4t-64.5 -16.5t-47 -34t-18.5 -54.5z" />
<glyph unicode="&#xab;" horiz-adv-x="1021" d="M61 582l320 452l133 -71l-227 -381l227 -381l-133 -72zM487 582l320 452l133 -71l-227 -381l227 -381l-133 -72z" />
<glyph unicode="&#xac;" horiz-adv-x="1155" d="M109 645v162h938v-698h-164v536h-774z" />
<glyph unicode="&#xad;" horiz-adv-x="612" d="M53 524v178h506v-178h-506z" />
<glyph unicode="&#xae;" horiz-adv-x="1667" d="M133 711q0 174 57.5 312t153.5 233.5t223 145.5t267 50q139 0 266 -50t223 -145.5t153.5 -233.5t57.5 -312t-57.5 -312.5t-153.5 -233.5t-223 -145.5t-266 -50.5t-266.5 50.5t-223.5 145.5t-153.5 233.5t-57.5 312.5zM283 711q0 -135 41 -247t113.5 -191.5t174 -123 t222.5 -43.5t222 43.5t174 123t113.5 191t40.5 247.5q0 135 -40.5 246.5t-113.5 191.5t-174.5 123t-221.5 43q-121 0 -222.5 -43t-174 -123t-113.5 -191.5t-41 -246.5zM547 303v795q55 12 116.5 18t112.5 6q176 0 268.5 -65.5t92.5 -198.5q0 -76 -40 -132t-114 -87 q20 -25 47 -61.5t55.5 -81.5t57 -94.5t51.5 -98.5h-158q-47 92 -105.5 175t-101.5 132h-137v-307h-145zM692 729h78q92 0 153.5 25.5t61.5 105.5q0 76 -58.5 105.5t-140.5 29.5q-23 0 -47 -1t-47 -3v-262z" />
<glyph unicode="&#xaf;" horiz-adv-x="770" d="M94 1309v147h582v-147h-582z" />
<glyph unicode="&#xb0;" horiz-adv-x="679" d="M53 1305q0 66 23.5 119t62.5 89.5t91.5 56t109.5 19.5t109.5 -19.5t91.5 -56t62.5 -90t23.5 -118.5q0 -66 -23.5 -119t-62.5 -90t-91.5 -56.5t-109.5 -19.5t-109.5 19.5t-91.5 56.5t-62.5 90t-23.5 119zM190 1305q0 -72 44.5 -114t105.5 -42t105 42t44 114t-44 113.5 t-105 41.5t-105.5 -41.5t-44.5 -113.5z" />
<glyph unicode="&#xb1;" horiz-adv-x="1155" d="M109 0v162h938v-162h-938zM109 696v162h387v412h163v-412h388v-162h-388v-411h-163v411h-387z" />
<glyph unicode="&#xb2;" horiz-adv-x="735" d="M61 1343q35 37 106 73t163 36q141 0 208.5 -59.5t67.5 -167.5q0 -43 -19.5 -84t-52 -81t-75.5 -80t-92 -83q-35 -29 -69 -62.5t-40 -60.5h381v-129h-545q-6 68 9.5 120t45 95t68.5 79t82 73q70 59 114 109t44 100q0 53 -34 77.5t-93 24.5q-35 0 -66 -9t-55.5 -22.5 t-44 -27t-29.5 -21.5z" />
<glyph unicode="&#xb3;" horiz-adv-x="735" d="M66 676l30 123q45 -16 95.5 -29.5t103.5 -13.5q109 0 149.5 33.5t40.5 87.5q0 35 -18 59.5t-50 39.5t-73 22.5t-84 7.5h-39v116h51q29 0 61 5.5t57.5 17.5t42 33.5t16.5 52.5q0 51 -38 72.5t-98 21.5q-55 0 -102 -19.5t-82 -35.5l-51 112q33 23 101.5 46.5t137.5 23.5 q150 0 212.5 -60.5t62.5 -154.5q0 -100 -113 -164q72 -23 114 -75t42 -124q0 -53 -18.5 -97t-59.5 -77.5t-105.5 -52t-154.5 -18.5q-63 0 -128.5 14.5t-102.5 32.5z" />
<glyph unicode="&#xb4;" horiz-adv-x="770" d="M260 1274l262 315l123 -121l-289 -280z" />
<glyph unicode="&#xb5;" horiz-adv-x="1187" d="M164 -379v1444h190v-569q0 -195 63.5 -273t205.5 -78q31 0 63.5 2.5t61 5.5t52 6t34.5 7v899h190v-1034q-66 -16 -169 -35t-226 -19q-113 0 -179.5 24t-107.5 69q6 -57 8 -115.5t2 -122.5v-211h-188z" />
<glyph unicode="&#xb6;" horiz-adv-x="1323" d="M88 981q0 113 46 197t132 141t209 86t275 29q86 0 184 -7.5t182 -27.5v-1778h-160v1645q-29 4 -71.5 7t-93.5 3q-16 0 -33 -1t-29 -3v-1651h-160v916q-227 23 -354 129t-127 315z" />
<glyph unicode="&#xb7;" horiz-adv-x="503" d="M115 603q0 55 36.5 96t100.5 41q63 0 100 -41t37 -96t-37 -96.5t-100 -41.5t-100 41.5t-37 96.5z" />
<glyph unicode="&#xb8;" horiz-adv-x="770" d="M141 -360l23 116q25 -8 52.5 -14t62.5 -6q74 0 73 47q0 23 -22.5 38t-63.5 32l-14 6q6 20 18.5 47.5t24.5 54.5t23.5 48.5t17.5 31.5h131q-12 -23 -30.5 -57.5t-28.5 -59.5q59 -29 85.5 -62.5t26.5 -99.5q0 -23 -10 -49t-34.5 -48.5t-65.5 -37t-101 -14.5q-53 0 -97 8.5 t-71 18.5z" />
<glyph unicode="&#xb9;" horiz-adv-x="735" d="M102 1272q78 27 154 68.5t131 95.5h100v-791h-143v602q-45 -29 -103.5 -51t-99.5 -35z" />
<glyph unicode="&#xba;" horiz-adv-x="913" d="M88 1061q0 88 27.5 160.5t77 123t117 78t147.5 27.5t147.5 -27.5t116.5 -78t76.5 -123t27.5 -160.5t-27.5 -160t-76.5 -123t-116.5 -78.5t-147.5 -27.5t-147.5 27.5t-117 78.5t-77 123t-27.5 160zM240 1061q0 -113 56 -182.5t161 -69.5q104 0 160.5 69.5t56.5 182.5 q0 115 -56.5 183.5t-160.5 68.5q-102 0 -159.5 -68.5t-57.5 -183.5z" />
<glyph unicode="&#xbb;" horiz-adv-x="1021" d="M82 201l227 381l-227 381l133 71l320 -452l-320 -453zM508 201l227 381l-227 381l133 71l320 -452l-320 -453z" />
<glyph unicode="&#xbc;" horiz-adv-x="1789" d="M102 1272q78 27 154 68.5t131 95.5h100v-791h-143v602q-45 -29 -103.5 -51t-99.5 -35zM401 0l801 1419h178l-801 -1419h-178zM1104 197v94q29 51 74 116.5t98 135t112.5 136t119.5 118.5h131v-480h102v-120h-102v-191h-140v191h-395zM1258 317h241v310 q-63 -66 -128.5 -149t-112.5 -161z" />
<glyph unicode="&#xbd;" horiz-adv-x="1789" d="M102 1272q78 27 154 68.5t131 95.5h100v-791h-143v602q-45 -29 -103.5 -51t-99.5 -35zM358 0l801 1419h178l-801 -1419h-178zM1116 704q35 37 106 73t163 36q141 0 208.5 -59.5t67.5 -167.5q0 -43 -19.5 -84t-52 -81t-75.5 -80t-92 -83q-35 -29 -69 -62.5t-40 -60.5h381 v-129h-545q-6 68 9.5 120t45 95t68.5 79t82 73q70 59 114 109t44 100q0 53 -34 77.5t-93 24.5q-35 0 -66 -9t-55.5 -22.5t-44 -27t-29.5 -21.5z" />
<glyph unicode="&#xbe;" horiz-adv-x="1789" d="M66 676l30 123q45 -16 95.5 -29.5t103.5 -13.5q109 0 149.5 33.5t40.5 87.5q0 35 -18 59.5t-50 39.5t-73 22.5t-84 7.5h-39v116h51q29 0 61 5.5t57.5 17.5t42 33.5t16.5 52.5q0 51 -38 72.5t-98 21.5q-55 0 -102 -19.5t-82 -35.5l-51 112q33 23 101.5 46.5t137.5 23.5 q150 0 212.5 -60.5t62.5 -154.5q0 -100 -113 -164q72 -23 114 -75t42 -124q0 -53 -18.5 -97t-59.5 -77.5t-105.5 -52t-154.5 -18.5q-63 0 -128.5 14.5t-102.5 32.5zM432 0l801 1419h178l-801 -1419h-178zM1104 197v94q29 51 74 116.5t98 135t112.5 136t119.5 118.5h131v-480 h102v-120h-102v-191h-140v191h-395zM1258 317h241v310q-63 -66 -128.5 -149t-112.5 -161z" />
<glyph unicode="&#xbf;" horiz-adv-x="827" d="M57 -70q0 68 26 121t64.5 101.5t82.5 91.5t83 91t64.5 101t25.5 121v20q0 9 -2 19h160q8 -41 8 -80q0 -66 -23.5 -119t-57 -99t-74.5 -87t-75 -82t-57.5 -84t-23.5 -92q0 -78 56.5 -128t156.5 -50q135 0 264 69l53 -147q-70 -37 -156.5 -59.5t-185.5 -22.5 q-111 0 -184.5 28.5t-119.5 73.5t-65.5 101.5t-19.5 111.5zM334 928q0 55 37 96t100 41t100 -41t37 -96t-36.5 -96t-100.5 -41q-63 0 -100 41t-37 96z" />
<glyph unicode="&#xc0;" horiz-adv-x="1357" d="M16 0q82 225 154 416.5t140.5 363.5t136 329t141.5 310h182q74 -154 141.5 -310.5t136 -328.5t140.5 -363.5t153 -416.5h-217q-35 92 -65.5 181t-63.5 181h-643l-129 -362h-207zM410 526h528q-66 178 -130.5 345t-133.5 321q-72 -154 -136.5 -321t-127.5 -345zM432 1787 l123 121l262 -315l-96 -86z" />
<glyph unicode="&#xc1;" horiz-adv-x="1357" d="M16 0q82 225 154 416.5t140.5 363.5t136 329t141.5 310h182q74 -154 141.5 -310.5t136 -328.5t140.5 -363.5t153 -416.5h-217q-35 92 -65.5 181t-63.5 181h-643l-129 -362h-207zM410 526h528q-66 178 -130.5 345t-133.5 321q-72 -154 -136.5 -321t-127.5 -345zM551 1593 l262 315l123 -121l-289 -280z" />
<glyph unicode="&#xc2;" horiz-adv-x="1357" d="M16 0q82 225 154 416.5t140.5 363.5t136 329t141.5 310h182q74 -154 141.5 -310.5t136 -328.5t140.5 -363.5t153 -416.5h-217q-35 92 -65.5 181t-63.5 181h-643l-129 -362h-207zM410 526h528q-66 178 -130.5 345t-133.5 321q-72 -154 -136.5 -321t-127.5 -345zM399 1601 l279 293l279 -293l-80 -90l-199 180l-199 -180z" />
<glyph unicode="&#xc3;" horiz-adv-x="1357" d="M16 0q82 225 154 416.5t140.5 363.5t136 329t141.5 310h182q74 -154 141.5 -310.5t136 -328.5t140.5 -363.5t153 -416.5h-217q-35 92 -65.5 181t-63.5 181h-643l-129 -362h-207zM410 526h528q-66 178 -130.5 345t-133.5 321q-72 -154 -136.5 -321t-127.5 -345zM342 1628 q8 25 26.5 57.5t45 60t62.5 47t79 19.5q41 0 77 -14.5t69 -30.5q35 -16 59 -24.5t47 -8.5q35 0 64.5 29t46.5 61l98 -49q-10 -25 -27.5 -57.5t-44 -60t-62.5 -47t-79 -19.5q-41 0 -77 14t-69 31q-35 16 -59 24.5t-47 8.5q-35 0 -64.5 -29t-46.5 -61z" />
<glyph unicode="&#xc4;" horiz-adv-x="1357" d="M16 0q82 225 154 416.5t140.5 363.5t136 329t141.5 310h182q74 -154 141.5 -310.5t136 -328.5t140.5 -363.5t153 -416.5h-217q-35 92 -65.5 181t-63.5 181h-643l-129 -362h-207zM410 526h528q-66 178 -130.5 345t-133.5 321q-72 -154 -136.5 -321t-127.5 -345zM365 1701 q0 53 35.5 87t82.5 34t83 -33.5t36 -87.5q0 -53 -35.5 -86.5t-83.5 -33.5q-47 0 -82.5 33.5t-35.5 86.5zM754 1701q0 53 35.5 87t83.5 34q47 0 82.5 -33.5t35.5 -87.5q0 -53 -35.5 -86.5t-82.5 -33.5t-83 33.5t-36 86.5z" />
<glyph unicode="&#xc5;" horiz-adv-x="1357" d="M16 0q76 209 143.5 390t132 344t127 310.5t130.5 292.5q-39 29 -61.5 72t-22.5 100q0 49 17.5 87t46 66t66.5 42t81 14t81 -14t66.5 -42t46 -65.5t17.5 -87.5q0 -55 -22.5 -97t-59.5 -71q68 -145 131 -293.5t127.5 -311.5t132.5 -344t145 -392h-217q-35 92 -65.5 182 t-63.5 183h-643l-129 -365h-207zM410 526h528q-66 178 -130.5 345t-133.5 321q-72 -154 -136.5 -320t-127.5 -346zM567 1509q0 -53 32 -82.5t77 -29.5t76.5 29.5t31.5 82.5t-31.5 83t-76.5 30t-77 -30t-32 -83z" />
<glyph unicode="&#xc6;" horiz-adv-x="1914" d="M12 0q117 221 228.5 416.5t218 370t210 331t205.5 301.5h914v-166h-617v-428h543v-161h-543v-498h668v-166h-864v365h-559q-49 -90 -97.5 -181.5t-93.5 -183.5h-213zM508 526h467v738q-109 -147 -225.5 -334t-241.5 -404z" />
<glyph unicode="&#xc7;" horiz-adv-x="1269" d="M119 711q0 178 54 316t146.5 232.5t215 143.5t262.5 49q88 0 158.5 -12.5t122.5 -28.5t85 -32.5t45 -24.5l-57 -164q-18 12 -53 26.5t-79 29t-96.5 23.5t-105.5 9q-113 0 -203 -39t-153.5 -112.5t-97 -179t-33.5 -236.5q0 -127 29.5 -231.5t89 -179.5t148.5 -116t208 -41 q137 0 227 29t135 51l52 -164q-29 -23 -138.5 -54.5t-277.5 -35.5q-6 -12 -11.5 -23.5t-9.5 -21.5q59 -29 86 -62.5t27 -99.5q0 -23 -10.5 -49t-35 -48.5t-65.5 -37t-100 -14.5q-53 0 -97 8t-71 19l23 116q25 -8 52 -14t62 -6q74 0 74 47q0 23 -22.5 38t-63.5 32l-14 6 q8 25 21.5 57.5t27.5 60.5q-127 16 -229.5 72.5t-175 150t-112.5 221.5t-40 290z" />
<glyph unicode="&#xc8;" horiz-adv-x="1169" d="M176 0v1419h866v-170h-667v-422h594v-165h-594v-492h719v-170h-918zM410 1787l123 121l262 -315l-96 -86z" />
<glyph unicode="&#xc9;" horiz-adv-x="1169" d="M176 0v1419h866v-170h-667v-422h594v-165h-594v-492h719v-170h-918zM518 1593l262 315l123 -121l-289 -280z" />
<glyph unicode="&#xca;" horiz-adv-x="1169" d="M176 0v1419h866v-170h-667v-422h594v-165h-594v-492h719v-170h-918zM329 1601l279 293l279 -293l-80 -90l-199 180l-199 -180z" />
<glyph unicode="&#xcb;" horiz-adv-x="1169" d="M176 0v1419h866v-170h-667v-422h594v-165h-594v-492h719v-170h-918zM295 1701q0 53 35.5 87t82.5 34t83 -33.5t36 -87.5q0 -53 -35.5 -86.5t-83.5 -33.5q-47 0 -82.5 33.5t-35.5 86.5zM684 1701q0 53 35.5 87t83.5 34q47 0 82.5 -33.5t35.5 -87.5q0 -53 -35.5 -86.5 t-82.5 -33.5t-83 33.5t-36 86.5z" />
<glyph unicode="&#xcc;" horiz-adv-x="550" d="M176 0v1419h199v-1419h-199zM31 1787l123 121l262 -315l-96 -86z" />
<glyph unicode="&#xcd;" horiz-adv-x="550" d="M176 0v1419h199v-1419h-199zM139 1593l262 315l123 -121l-289 -280z" />
<glyph unicode="&#xce;" horiz-adv-x="550" d="M176 0v1419h199v-1419h-199zM-3 1601l279 293l279 -293l-80 -90l-199 180l-199 -180z" />
<glyph unicode="&#xcf;" horiz-adv-x="550" d="M176 0v1419h199v-1419h-199zM-37 1701q0 53 35.5 87t82.5 34t83 -33.5t36 -87.5q0 -53 -35.5 -86.5t-83.5 -33.5q-47 0 -82.5 33.5t-35.5 86.5zM352 1701q0 53 35.5 87t83.5 34q47 0 82.5 -33.5t35.5 -87.5q0 -53 -35.5 -86.5t-82.5 -33.5t-83 33.5t-36 86.5z" />
<glyph unicode="&#xd0;" horiz-adv-x="1486" d="M39 664v153h164v582q84 20 187.5 27.5t189.5 7.5q174 0 319 -44t249.5 -133.5t162 -225.5t57.5 -320t-57.5 -320.5t-162 -225.5t-249.5 -133t-319 -44q-86 0 -189.5 7t-187.5 28v641h-164zM401 168q18 -2 64.5 -4t130.5 -2q283 0 422 144.5t139 404.5t-139 404.5 t-422 144.5q-84 0 -130 -2.5t-65 -4.5v-436h267v-153h-267v-496z" />
<glyph unicode="&#xd1;" horiz-adv-x="1490" d="M176 0v1419h158q96 -102 205.5 -238.5t217 -280.5t203 -283.5t160.5 -247.5v1050h195v-1419h-166q-45 76 -103.5 170t-126 195.5t-140 206t-144.5 201.5t-139.5 183t-124.5 152v-1108h-195zM409 1628q8 25 26.5 57.5t45 60t62.5 47t79 19.5q41 0 77 -14.5t69 -30.5 q35 -16 59 -24.5t47 -8.5q35 0 64.5 29t46.5 61l98 -49q-10 -25 -27.5 -57.5t-44 -60t-62.5 -47t-79 -19.5q-41 0 -77 14t-69 31q-35 16 -59 24.5t-47 8.5q-35 0 -64.5 -29t-46.5 -61z" />
<glyph unicode="&#xd2;" horiz-adv-x="1593" d="M119 711q0 182 54 321t147.5 232.5t217.5 140.5t263 47q137 0 259 -47t214 -140.5t146.5 -232.5t54.5 -321t-54.5 -321.5t-146.5 -233t-214 -140.5t-259 -47q-139 0 -263 47t-217.5 140.5t-147.5 233t-54 321.5zM328 711q0 -129 32.5 -234.5t93 -179.5t147.5 -114 t196 -40t194.5 40t146 114t93.5 179.5t33 234.5t-33 234.5t-93.5 179t-146.5 113.5t-194 40q-109 0 -196 -40t-147.5 -113.5t-93 -179t-32.5 -234.5zM551 1787l123 121l262 -315l-96 -86z" />
<glyph unicode="&#xd3;" horiz-adv-x="1593" d="M119 711q0 182 54 321t147.5 232.5t217.5 140.5t263 47q137 0 259 -47t214 -140.5t146.5 -232.5t54.5 -321t-54.5 -321.5t-146.5 -233t-214 -140.5t-259 -47q-139 0 -263 47t-217.5 140.5t-147.5 233t-54 321.5zM328 711q0 -129 32.5 -234.5t93 -179.5t147.5 -114 t196 -40t194.5 40t146 114t93.5 179.5t33 234.5t-33 234.5t-93.5 179t-146.5 113.5t-194 40q-109 0 -196 -40t-147.5 -113.5t-93 -179t-32.5 -234.5zM659 1593l262 315l123 -121l-289 -280z" />
<glyph unicode="&#xd4;" horiz-adv-x="1593" d="M119 711q0 182 54 321t147.5 232.5t217.5 140.5t263 47q137 0 259 -47t214 -140.5t146.5 -232.5t54.5 -321t-54.5 -321.5t-146.5 -233t-214 -140.5t-259 -47q-139 0 -263 47t-217.5 140.5t-147.5 233t-54 321.5zM328 711q0 -129 32.5 -234.5t93 -179.5t147.5 -114 t196 -40t194.5 40t146 114t93.5 179.5t33 234.5t-33 234.5t-93.5 179t-146.5 113.5t-194 40q-109 0 -196 -40t-147.5 -113.5t-93 -179t-32.5 -234.5zM518 1601l279 293l279 -293l-80 -90l-199 180l-199 -180z" />
<glyph unicode="&#xd5;" horiz-adv-x="1593" d="M119 711q0 182 54 321t147.5 232.5t217.5 140.5t263 47q137 0 259 -47t214 -140.5t146.5 -232.5t54.5 -321t-54.5 -321.5t-146.5 -233t-214 -140.5t-259 -47q-139 0 -263 47t-217.5 140.5t-147.5 233t-54 321.5zM328 711q0 -129 32.5 -234.5t93 -179.5t147.5 -114 t196 -40t194.5 40t146 114t93.5 179.5t33 234.5t-33 234.5t-93.5 179t-146.5 113.5t-194 40q-109 0 -196 -40t-147.5 -113.5t-93 -179t-32.5 -234.5zM461 1628q8 25 26.5 57.5t45 60t62.5 47t79 19.5q41 0 77 -14.5t69 -30.5q35 -16 59 -24.5t47 -8.5q35 0 64.5 29t46.5 61 l98 -49q-10 -25 -27.5 -57.5t-44 -60t-62.5 -47t-79 -19.5q-41 0 -77 14t-69 31q-35 16 -59 24.5t-47 8.5q-35 0 -64.5 -29t-46.5 -61z" />
<glyph unicode="&#xd6;" horiz-adv-x="1593" d="M119 711q0 182 54 321t147.5 232.5t217.5 140.5t263 47q137 0 259 -47t214 -140.5t146.5 -232.5t54.5 -321t-54.5 -321.5t-146.5 -233t-214 -140.5t-259 -47q-139 0 -263 47t-217.5 140.5t-147.5 233t-54 321.5zM328 711q0 -129 32.5 -234.5t93 -179.5t147.5 -114 t196 -40t194.5 40t146 114t93.5 179.5t33 234.5t-33 234.5t-93.5 179t-146.5 113.5t-194 40q-109 0 -196 -40t-147.5 -113.5t-93 -179t-32.5 -234.5zM484 1701q0 53 35.5 87t82.5 34t83 -33.5t36 -87.5q0 -53 -35.5 -86.5t-83.5 -33.5q-47 0 -82.5 33.5t-35.5 86.5z M873 1701q0 53 35.5 87t83.5 34q47 0 82.5 -33.5t35.5 -87.5q0 -53 -35.5 -86.5t-82.5 -33.5t-83 33.5t-36 86.5z" />
<glyph unicode="&#xd7;" horiz-adv-x="1155" d="M164 313l299 299l-299 299l115 115l299 -299l299 299l114 -115l-299 -299l299 -299l-114 -114l-299 299l-299 -299z" />
<glyph unicode="&#xd8;" horiz-adv-x="1593" d="M119 711q0 182 54 321t147.5 232.5t217.5 140.5t263 47q217 0 385 -115l121 158l127 -94l-131 -170q80 -92 126 -222t46 -298q0 -182 -54.5 -321.5t-146.5 -233t-214 -140.5t-259 -47q-109 0 -206 28t-181 83l-119 -154l-127 94l127 164q-82 92 -129 223.5t-47 303.5z M328 711q0 -223 90 -367l653 846q-113 88 -274 88q-109 0 -196 -40t-147.5 -113.5t-93 -179t-32.5 -234.5zM526 227q109 -84 271 -84q109 0 194.5 40t146 114t93.5 179.5t33 234.5q0 109 -22.5 197.5t-63.5 160.5z" />
<glyph unicode="&#xd9;" horiz-adv-x="1409" d="M166 528v891h199v-868q0 -213 94 -309.5t246 -96.5q76 0 138 24t107 73t69.5 125.5t24.5 183.5v868h199v-891q0 -119 -31.5 -221t-98 -177t-168 -118t-240.5 -43t-242 43t-168.5 118t-97 177t-31.5 221zM459 1787l123 121l262 -315l-96 -86z" />
<glyph unicode="&#xda;" horiz-adv-x="1409" d="M166 528v891h199v-868q0 -213 94 -309.5t246 -96.5q76 0 138 24t107 73t69.5 125.5t24.5 183.5v868h199v-891q0 -119 -31.5 -221t-98 -177t-168 -118t-240.5 -43t-242 43t-168.5 118t-97 177t-31.5 221zM567 1593l262 315l123 -121l-289 -280z" />
<glyph unicode="&#xdb;" horiz-adv-x="1409" d="M166 528v891h199v-868q0 -213 94 -309.5t246 -96.5q76 0 138 24t107 73t69.5 125.5t24.5 183.5v868h199v-891q0 -119 -31.5 -221t-98 -177t-168 -118t-240.5 -43t-242 43t-168.5 118t-97 177t-31.5 221zM425 1601l279 293l279 -293l-80 -90l-199 180l-199 -180z" />
<glyph unicode="&#xdc;" horiz-adv-x="1409" d="M166 528v891h199v-868q0 -213 94 -309.5t246 -96.5q76 0 138 24t107 73t69.5 125.5t24.5 183.5v868h199v-891q0 -119 -31.5 -221t-98 -177t-168 -118t-240.5 -43t-242 43t-168.5 118t-97 177t-31.5 221zM391 1701q0 53 35.5 87t82.5 34t83 -33.5t36 -87.5 q0 -53 -35.5 -86.5t-83.5 -33.5q-47 0 -82.5 33.5t-35.5 86.5zM780 1701q0 53 35.5 87t83.5 34q47 0 82.5 -33.5t35.5 -87.5q0 -53 -35.5 -86.5t-82.5 -33.5t-83 33.5t-36 86.5z" />
<glyph unicode="&#xdd;" horiz-adv-x="1224" d="M12 1419h234q78 -168 174 -341t198 -333q100 160 196.5 333t176.5 341h221q-111 -205 -235.5 -416.5t-263.5 -429.5v-573h-199v569q-141 219 -266 432t-236 418zM477 1593l262 315l123 -121l-289 -280z" />
<glyph unicode="&#xde;" horiz-adv-x="1247" d="M176 0v1419h199v-231q39 4 81 5t81 1q637 0 637 -453q0 -123 -44.5 -207.5t-127 -139t-201.5 -79t-269 -24.5h-157v-291h-199zM375 455h149q102 0 184.5 13t138.5 46t87 88t31 141q0 82 -32 136.5t-89.5 86t-137 44t-176.5 12.5h-76q-40 0 -79 -4v-563z" />
<glyph unicode="&#xdf;" horiz-adv-x="1275" d="M164 0v1135q0 102 28.5 186t84 143.5t137.5 92t188 32.5q111 0 190.5 -24.5t130 -68.5t74 -104.5t23.5 -129.5q0 -51 -14.5 -91.5t-36 -74t-47 -62t-48.5 -53.5q-47 -51 -79.5 -85t-32.5 -85q0 -31 15.5 -53.5t40 -39t54 -30.5t60.5 -29q55 -27 103 -57.5t84 -70 t55.5 -94t19.5 -130.5q0 -160 -99.5 -246t-308.5 -86q-43 0 -86 6.5t-79.5 15.5t-64.5 19.5t-40 16.5l33 166q12 -6 37.5 -16.5t59.5 -20.5t74 -17.5t81 -7.5q102 0 151 45t49 121q0 80 -47 131t-163 105q-68 31 -112 58.5t-68.5 56t-35 59t-10.5 71.5q0 82 45 137.5 t97 108.5q20 20 41.5 45t40 50.5t29.5 52t11 55.5q0 90 -53 140t-160 50q-137 0 -199.5 -77.5t-62.5 -215.5v-1130h-190z" />
<glyph unicode="&#xe0;" horiz-adv-x="1069" d="M88 317q0 88 36 151.5t97.5 102.5t143 57.5t172.5 18.5q29 0 59.5 -3t58 -8t48 -9t28.5 -6v53q0 47 -10 93t-37 82t-73 57.5t-119 21.5q-94 0 -165 -13.5t-106 -27.5l-22 157q37 16 123 32t186 16q115 0 193.5 -30t127 -84t69 -129t20.5 -165v-666q-25 -4 -69 -11 t-99.5 -13t-120 -11.5t-127.5 -5.5q-90 0 -166 18.5t-131 58.5t-86 105.5t-31 157.5zM281 319q0 -102 65.5 -142t177.5 -40q68 0 120 3t87 12v317q-20 10 -66.5 17.5t-111.5 7.5q-43 0 -91 -6.5t-88 -26t-66.5 -53.5t-26.5 -89zM293 1468l123 121l262 -315l-96 -86z" />
<glyph unicode="&#xe1;" horiz-adv-x="1069" d="M88 317q0 88 36 151.5t97.5 102.5t143 57.5t172.5 18.5q29 0 59.5 -3t58 -8t48 -9t28.5 -6v53q0 47 -10 93t-37 82t-73 57.5t-119 21.5q-94 0 -165 -13.5t-106 -27.5l-22 157q37 16 123 32t186 16q115 0 193.5 -30t127 -84t69 -129t20.5 -165v-666q-25 -4 -69 -11 t-99.5 -13t-120 -11.5t-127.5 -5.5q-90 0 -166 18.5t-131 58.5t-86 105.5t-31 157.5zM281 319q0 -102 65.5 -142t177.5 -40q68 0 120 3t87 12v317q-20 10 -66.5 17.5t-111.5 7.5q-43 0 -91 -6.5t-88 -26t-66.5 -53.5t-26.5 -89zM401 1274l262 315l123 -121l-289 -280z" />
<glyph unicode="&#xe2;" horiz-adv-x="1069" d="M88 317q0 88 36 151.5t97.5 102.5t143 57.5t172.5 18.5q29 0 59.5 -3t58 -8t48 -9t28.5 -6v53q0 47 -10 93t-37 82t-73 57.5t-119 21.5q-94 0 -165 -13.5t-106 -27.5l-22 157q37 16 123 32t186 16q115 0 193.5 -30t127 -84t69 -129t20.5 -165v-666q-25 -4 -69 -11 t-99.5 -13t-120 -11.5t-127.5 -5.5q-90 0 -166 18.5t-131 58.5t-86 105.5t-31 157.5zM281 319q0 -102 65.5 -142t177.5 -40q68 0 120 3t87 12v317q-20 10 -66.5 17.5t-111.5 7.5q-43 0 -91 -6.5t-88 -26t-66.5 -53.5t-26.5 -89zM260 1282l279 293l279 -293l-80 -90l-199 180 l-199 -180z" />
<glyph unicode="&#xe3;" horiz-adv-x="1069" d="M88 317q0 88 36 151.5t97.5 102.5t143 57.5t172.5 18.5q29 0 59.5 -3t58 -8t48 -9t28.5 -6v53q0 47 -10 93t-37 82t-73 57.5t-119 21.5q-94 0 -165 -13.5t-106 -27.5l-22 157q37 16 123 32t186 16q115 0 193.5 -30t127 -84t69 -129t20.5 -165v-666q-25 -4 -69 -11 t-99.5 -13t-120 -11.5t-127.5 -5.5q-90 0 -166 18.5t-131 58.5t-86 105.5t-31 157.5zM281 319q0 -102 65.5 -142t177.5 -40q68 0 120 3t87 12v317q-20 10 -66.5 17.5t-111.5 7.5q-43 0 -91 -6.5t-88 -26t-66.5 -53.5t-26.5 -89zM203 1309q8 25 26.5 57.5t45 60t62.5 47 t79 19.5q41 0 77 -14.5t69 -30.5q35 -16 59 -24.5t47 -8.5q35 0 64.5 29t46.5 61l98 -49q-10 -25 -27.5 -57.5t-44 -60t-62.5 -47t-79 -19.5q-41 0 -77 14t-69 31q-35 16 -59 24.5t-47 8.5q-35 0 -64.5 -29t-46.5 -61z" />
<glyph unicode="&#xe4;" horiz-adv-x="1069" d="M88 317q0 88 36 151.5t97.5 102.5t143 57.5t172.5 18.5q29 0 59.5 -3t58 -8t48 -9t28.5 -6v53q0 47 -10 93t-37 82t-73 57.5t-119 21.5q-94 0 -165 -13.5t-106 -27.5l-22 157q37 16 123 32t186 16q115 0 193.5 -30t127 -84t69 -129t20.5 -165v-666q-25 -4 -69 -11 t-99.5 -13t-120 -11.5t-127.5 -5.5q-90 0 -166 18.5t-131 58.5t-86 105.5t-31 157.5zM281 319q0 -102 65.5 -142t177.5 -40q68 0 120 3t87 12v317q-20 10 -66.5 17.5t-111.5 7.5q-43 0 -91 -6.5t-88 -26t-66.5 -53.5t-26.5 -89zM226 1382q0 53 35.5 87t82.5 34t83 -33.5 t36 -87.5q0 -53 -35.5 -86.5t-83.5 -33.5q-47 0 -82.5 33.5t-35.5 86.5zM615 1382q0 53 35.5 87t83.5 34q47 0 82.5 -33.5t35.5 -87.5q0 -53 -35.5 -86.5t-82.5 -33.5t-83 33.5t-36 86.5z" />
<glyph unicode="&#xe5;" horiz-adv-x="1069" d="M88 317q0 88 36 151.5t97.5 102.5t143 57.5t172.5 18.5q29 0 59.5 -3t58 -8t48 -9t28.5 -6v53q0 47 -10 93t-37 82t-73 57.5t-119 21.5q-94 0 -165 -13.5t-106 -27.5l-22 157q37 16 123 32t186 16q115 0 193.5 -30t127 -84t69 -129t20.5 -165v-666q-25 -4 -69 -11 t-99.5 -13t-120 -11.5t-127.5 -5.5q-90 0 -166 18.5t-131 58.5t-86 105.5t-31 157.5zM281 319q0 -102 65.5 -142t177.5 -40q68 0 120 3t87 12v317q-20 10 -66.5 17.5t-111.5 7.5q-43 0 -91 -6.5t-88 -26t-66.5 -53.5t-26.5 -89zM328 1386q0 49 17.5 87t46 66t66.5 42t81 14 t81 -14t66.5 -42t46 -65.5t17.5 -87.5q0 -49 -17.5 -86.5t-46 -65.5t-66.5 -42t-81 -14t-81 14t-66.5 42t-46 65.5t-17.5 86.5zM430 1386q0 -53 32 -82.5t77 -29.5t77 29.5t32 82.5t-32 83t-77 30t-77 -30t-32 -83z" />
<glyph unicode="&#xe6;" horiz-adv-x="1759" d="M90 317q0 88 36 151.5t97.5 102.5t143.5 57.5t172 18.5q29 0 59.5 -3t57 -8t47 -9t28.5 -6v53q0 47 -10 93t-37 82t-73 57.5t-119 21.5q-94 0 -165 -13.5t-106 -27.5l-22 157q37 16 122 32t183 16q141 0 224 -48.5t124 -134.5q68 92 160 137.5t192 45.5q213 0 329 -135.5 t116 -407.5q0 -16 -1 -27.5t-1 -21.5v-19h-729q12 -164 97 -251t261 -87q100 0 168.5 17.5t103.5 34.5l27 -160q-35 -18 -122 -39t-198 -21q-117 0 -203.5 28t-152.5 81q-20 -14 -54 -32.5t-81 -36t-105.5 -29t-128.5 -11.5q-102 0 -183 18.5t-138 59.5t-88 106.5t-31 157.5 zM283 319q0 -104 66.5 -143t185.5 -39q106 0 167.5 23.5t94.5 46.5q-31 57 -48.5 122.5t-19.5 139.5q-23 10 -65.5 17.5t-108.5 7.5q-43 0 -91 -6.5t-88 -26t-66.5 -53.5t-26.5 -89zM922 635h528q2 129 -64.5 212t-183.5 83q-66 0 -116 -25.5t-83.5 -66.5t-54 -94.5 t-26.5 -108.5z" />
<glyph unicode="&#xe7;" horiz-adv-x="952" d="M104 530q0 123 36 225.5t101.5 177.5t161 117t211.5 42q72 0 143.5 -12.5t137.5 -39.5l-43 -161q-43 20 -99.5 32.5t-119.5 12.5q-160 0 -245 -100.5t-85 -293.5q0 -86 19.5 -157.5t61.5 -122.5t107.5 -79t159.5 -28q76 0 137.5 14.5t96.5 30.5l26 -159 q-16 -8 -43.5 -17.5t-62.5 -16.5t-75 -12.5t-79 -7.5l-22 -51q59 -29 85.5 -62.5t26.5 -99.5q0 -23 -10 -49t-34.5 -48.5t-65.5 -37t-101 -14.5q-53 0 -97 8t-71 19l23 116q25 -8 52.5 -14t62.5 -6q74 0 73 47q0 23 -22.5 38t-63.5 32l-14 6q8 25 22.5 59.5t30.5 65.5 q-104 14 -183 60t-132 117.5t-80 164.5t-27 204z" />
<glyph unicode="&#xe8;" horiz-adv-x="1144" d="M104 530q0 141 41 247t109 175.5t156 104.5t180 35q215 0 329.5 -134.5t114.5 -408.5v-32q0 -19 -2 -36h-729q12 -166 96 -252t263 -86q100 0 168.5 17.5t103.5 34.5l27 -160q-35 -18 -122 -39t-198 -21q-139 0 -240.5 42t-167 116t-97.5 175t-32 222zM307 635h529 q2 129 -64.5 212t-183.5 83q-66 0 -116 -25.5t-85 -66.5t-54.5 -94.5t-25.5 -108.5zM340 1468l123 121l262 -315l-96 -86z" />
<glyph unicode="&#xe9;" horiz-adv-x="1144" d="M104 530q0 141 41 247t109 175.5t156 104.5t180 35q215 0 329.5 -134.5t114.5 -408.5v-32q0 -19 -2 -36h-729q12 -166 96 -252t263 -86q100 0 168.5 17.5t103.5 34.5l27 -160q-35 -18 -122 -39t-198 -21q-139 0 -240.5 42t-167 116t-97.5 175t-32 222zM307 635h529 q2 129 -64.5 212t-183.5 83q-66 0 -116 -25.5t-85 -66.5t-54.5 -94.5t-25.5 -108.5zM448 1274l262 315l123 -121l-289 -280z" />
<glyph unicode="&#xea;" horiz-adv-x="1144" d="M104 530q0 141 41 247t109 175.5t156 104.5t180 35q215 0 329.5 -134.5t114.5 -408.5v-32q0 -19 -2 -36h-729q12 -166 96 -252t263 -86q100 0 168.5 17.5t103.5 34.5l27 -160q-35 -18 -122 -39t-198 -21q-139 0 -240.5 42t-167 116t-97.5 175t-32 222zM307 635h529 q2 129 -64.5 212t-183.5 83q-66 0 -116 -25.5t-85 -66.5t-54.5 -94.5t-25.5 -108.5zM307 1282l279 293l279 -293l-80 -90l-199 180l-199 -180z" />
<glyph unicode="&#xeb;" horiz-adv-x="1144" d="M104 530q0 141 41 247t109 175.5t156 104.5t180 35q215 0 329.5 -134.5t114.5 -408.5v-32q0 -19 -2 -36h-729q12 -166 96 -252t263 -86q100 0 168.5 17.5t103.5 34.5l27 -160q-35 -18 -122 -39t-198 -21q-139 0 -240.5 42t-167 116t-97.5 175t-32 222zM307 635h529 q2 129 -64.5 212t-183.5 83q-66 0 -116 -25.5t-85 -66.5t-54.5 -94.5t-25.5 -108.5zM273 1382q0 53 35.5 87t82.5 34t83 -33.5t36 -87.5q0 -53 -35.5 -86.5t-83.5 -33.5q-47 0 -82.5 33.5t-35.5 86.5zM662 1382q0 53 35.5 87t83.5 34q47 0 82.5 -33.5t35.5 -87.5 q0 -53 -35.5 -86.5t-82.5 -33.5t-83 33.5t-36 86.5z" />
<glyph unicode="&#xec;" horiz-adv-x="518" d="M164 0v1065h190v-1065h-190zM14 1468l123 121l262 -315l-96 -86z" />
<glyph unicode="&#xed;" horiz-adv-x="518" d="M164 0v1065h190v-1065h-190zM123 1274l262 315l123 -121l-289 -280z" />
<glyph unicode="&#xee;" horiz-adv-x="518" d="M164 0v1065h190v-1065h-190zM-19 1282l279 293l279 -293l-80 -90l-199 180l-199 -180z" />
<glyph unicode="&#xef;" horiz-adv-x="518" d="M164 0v1065h190v-1065h-190zM-53 1382q0 53 35.5 87t82.5 34t83 -33.5t36 -87.5q0 -53 -35.5 -86.5t-83.5 -33.5q-47 0 -82.5 33.5t-35.5 86.5zM336 1382q0 53 35.5 87t83.5 34q47 0 82.5 -33.5t35.5 -87.5q0 -53 -35.5 -86.5t-82.5 -33.5t-83 33.5t-36 86.5z" />
<glyph unicode="&#xf0;" horiz-adv-x="1206" d="M104 508q0 115 34 207t95.5 156.5t150.5 98.5t200 34q104 0 182 -33t115 -62q-25 164 -113 303l-246 -84l-47 129l209 72q-68 80 -172 156l121 104q45 -29 103.5 -79t117.5 -124l254 89l47 -129l-219 -76q66 -111 111 -258.5t45 -339.5q0 -135 -24 -261t-81 -223.5 t-154.5 -156t-244.5 -58.5q-121 0 -212 45t-151.5 119t-90.5 170.5t-30 200.5zM299 508q0 -74 18.5 -140.5t54.5 -116.5t90 -80t126 -30q94 0 154.5 45t94 119t47 168t13.5 193q0 16 -1 32.5t-1 32.5q-70 61 -145.5 84t-141.5 23q-84 0 -142 -26t-95 -71t-54.5 -104 t-17.5 -129z" />
<glyph unicode="&#xf1;" d="M164 0v1034q66 16 174 34.5t250 18.5q127 0 211 -35.5t134 -100t70.5 -154.5t20.5 -199v-598h-190v557q0 98 -13.5 168t-44.5 113t-82 62.5t-127 19.5q-31 0 -63.5 -2.5t-62 -5.5t-53 -7t-34.5 -6v-899h-190zM258 1309q8 25 26.5 57.5t45 60t62.5 47t79 19.5 q41 0 77 -14.5t69 -30.5q35 -16 59 -24.5t47 -8.5q35 0 64.5 29t46.5 61l98 -49q-10 -25 -27.5 -57.5t-44 -60t-62.5 -47t-79 -19.5q-41 0 -77 14t-69 31q-35 16 -59 24.5t-47 8.5q-35 0 -64.5 -29t-46.5 -61z" />
<glyph unicode="&#xf2;" horiz-adv-x="1208" d="M104 532q0 125 37 228.5t103.5 177.5t159 114t200.5 40q109 0 201 -40t158.5 -114t103.5 -177.5t37 -228.5q0 -127 -37 -229t-103.5 -176t-158.5 -114t-201 -40t-201 40t-158.5 114t-103.5 176t-37 229zM303 532q0 -180 81 -285.5t220 -105.5t220 105.5t81 285.5t-81 286 t-220 106t-220 -106t-81 -286zM358 1468l123 121l262 -315l-96 -86z" />
<glyph unicode="&#xf3;" horiz-adv-x="1208" d="M104 532q0 125 37 228.5t103.5 177.5t159 114t200.5 40q109 0 201 -40t158.5 -114t103.5 -177.5t37 -228.5q0 -127 -37 -229t-103.5 -176t-158.5 -114t-201 -40t-201 40t-158.5 114t-103.5 176t-37 229zM303 532q0 -180 81 -285.5t220 -105.5t220 105.5t81 285.5t-81 286 t-220 106t-220 -106t-81 -286zM467 1274l262 315l123 -121l-289 -280z" />
<glyph unicode="&#xf4;" horiz-adv-x="1208" d="M104 532q0 125 37 228.5t103.5 177.5t159 114t200.5 40q109 0 201 -40t158.5 -114t103.5 -177.5t37 -228.5q0 -127 -37 -229t-103.5 -176t-158.5 -114t-201 -40t-201 40t-158.5 114t-103.5 176t-37 229zM303 532q0 -180 81 -285.5t220 -105.5t220 105.5t81 285.5t-81 286 t-220 106t-220 -106t-81 -286zM325 1282l279 293l279 -293l-80 -90l-199 180l-199 -180z" />
<glyph unicode="&#xf5;" horiz-adv-x="1208" d="M104 532q0 125 37 228.5t103.5 177.5t159 114t200.5 40q109 0 201 -40t158.5 -114t103.5 -177.5t37 -228.5q0 -127 -37 -229t-103.5 -176t-158.5 -114t-201 -40t-201 40t-158.5 114t-103.5 176t-37 229zM303 532q0 -180 81 -285.5t220 -105.5t220 105.5t81 285.5t-81 286 t-220 106t-220 -106t-81 -286zM268 1309q8 25 26.5 57.5t45 60t62.5 47t79 19.5q41 0 77 -14.5t69 -30.5q35 -16 59 -24.5t47 -8.5q35 0 64.5 29t46.5 61l98 -49q-10 -25 -27.5 -57.5t-44 -60t-62.5 -47t-79 -19.5q-41 0 -77 14t-69 31q-35 16 -59 24.5t-47 8.5 q-35 0 -64.5 -29t-46.5 -61z" />
<glyph unicode="&#xf6;" horiz-adv-x="1208" d="M104 532q0 125 37 228.5t103.5 177.5t159 114t200.5 40q109 0 201 -40t158.5 -114t103.5 -177.5t37 -228.5q0 -127 -37 -229t-103.5 -176t-158.5 -114t-201 -40t-201 40t-158.5 114t-103.5 176t-37 229zM303 532q0 -180 81 -285.5t220 -105.5t220 105.5t81 285.5t-81 286 t-220 106t-220 -106t-81 -286zM291 1382q0 53 35.5 87t82.5 34t83 -33.5t36 -87.5q0 -53 -35.5 -86.5t-83.5 -33.5q-47 0 -82.5 33.5t-35.5 86.5zM680 1382q0 53 35.5 87t83.5 34q47 0 82.5 -33.5t35.5 -87.5q0 -53 -35.5 -86.5t-82.5 -33.5t-83 33.5t-36 86.5z" />
<glyph unicode="&#xf7;" horiz-adv-x="1155" d="M109 532v162h938v-162h-938zM455 217q0 57 35.5 91t87.5 34q51 0 86.5 -34t35.5 -91t-35.5 -91t-86.5 -34t-87 34t-36 91zM455 1008q0 57 35.5 91t87.5 34q51 0 86.5 -34t35.5 -91t-35.5 -91t-86.5 -34t-87 34t-36 91z" />
<glyph unicode="&#xf8;" horiz-adv-x="1208" d="M104 532q0 125 37 228.5t103.5 177.5t159 114t200.5 40q80 0 150.5 -22.5t130.5 -63.5l100 131l109 -82l-111 -144q57 -72 89 -167t32 -212q0 -127 -37 -229t-103.5 -176t-158.5 -114t-201 -40q-162 0 -280 84l-101 -131l-108 82l110 144q-57 72 -89 167.5t-32 212.5z M301 532q0 -133 43 -225l434 561q-74 57 -174 58q-141 0 -222 -106t-81 -288zM430 195q70 -55 174 -56q141 0 222 105.5t81 287.5q0 127 -45 224z" />
<glyph unicode="&#xf9;" d="M152 467v598h190v-557q0 -195 61.5 -279t206.5 -84q31 0 64 2.5t61.5 5.5t52 6t33.5 7v899h191v-1034q-66 -16 -173.5 -35t-248.5 -19q-123 0 -207 36t-135 101.5t-73.5 154.5t-22.5 198zM336 1468l123 121l262 -315l-96 -86z" />
<glyph unicode="&#xfa;" d="M152 467v598h190v-557q0 -195 61.5 -279t206.5 -84q31 0 64 2.5t61.5 5.5t52 6t33.5 7v899h191v-1034q-66 -16 -173.5 -35t-248.5 -19q-123 0 -207 36t-135 101.5t-73.5 154.5t-22.5 198zM444 1274l262 315l123 -121l-289 -280z" />
<glyph unicode="&#xfb;" d="M152 467v598h190v-557q0 -195 61.5 -279t206.5 -84q31 0 64 2.5t61.5 5.5t52 6t33.5 7v899h191v-1034q-66 -16 -173.5 -35t-248.5 -19q-123 0 -207 36t-135 101.5t-73.5 154.5t-22.5 198zM303 1282l279 293l279 -293l-80 -90l-199 180l-199 -180z" />
<glyph unicode="&#xfc;" d="M152 467v598h190v-557q0 -195 61.5 -279t206.5 -84q31 0 64 2.5t61.5 5.5t52 6t33.5 7v899h191v-1034q-66 -16 -173.5 -35t-248.5 -19q-123 0 -207 36t-135 101.5t-73.5 154.5t-22.5 198zM269 1382q0 53 35.5 87t82.5 34t83 -33.5t36 -87.5q0 -53 -35.5 -86.5 t-83.5 -33.5q-47 0 -82.5 33.5t-35.5 86.5zM658 1382q0 53 35.5 87t83.5 34q47 0 82.5 -33.5t35.5 -87.5q0 -53 -35.5 -86.5t-82.5 -33.5t-83 33.5t-36 86.5z" />
<glyph unicode="&#xfd;" horiz-adv-x="1017" d="M4 -352l35 153q23 -10 58.5 -19t70.5 -9q113 0 176.5 50t114.5 163q-129 246 -241 521t-185 558h205q23 -92 54.5 -198.5t70 -219t84 -225.5t94.5 -217q78 215 135 426t108 434h197q-74 -301 -164 -578.5t-194 -519.5q-41 -92 -85 -158.5t-97.5 -109.5t-120 -63.5 t-150.5 -20.5q-23 0 -47.5 3t-48 8t-43 11.5t-27.5 10.5zM397 1274l262 315l123 -121l-289 -280z" />
<glyph unicode="&#xfe;" horiz-adv-x="1206" d="M164 -379v1935l190 33v-542q53 18 111.5 29t112.5 11q117 0 214 -38.5t165.5 -110.5t106.5 -175.5t38 -232.5q0 -121 -32 -223t-93.5 -176t-150.5 -115t-203 -41q-92 0 -163 25t-106 47v-426h-190zM354 225q35 -29 100.5 -55.5t143.5 -26.5q82 0 140.5 30t95 82t53 123 t16.5 152q0 186 -92 288t-246 102q-31 0 -63.5 -4.5t-62 -9.5t-52 -11t-33.5 -10v-660z" />
<glyph unicode="&#xff;" horiz-adv-x="1017" d="M4 -352l35 153q23 -10 58.5 -19t70.5 -9q113 0 176.5 50t114.5 163q-129 246 -241 521t-185 558h205q23 -92 54.5 -198.5t70 -219t84 -225.5t94.5 -217q78 215 135 426t108 434h197q-74 -301 -164 -578.5t-194 -519.5q-41 -92 -85 -158.5t-97.5 -109.5t-120 -63.5 t-150.5 -20.5q-23 0 -47.5 3t-48 8t-43 11.5t-27.5 10.5zM222 1382q0 53 35.5 87t82.5 34t83 -33.5t36 -87.5q0 -53 -35.5 -86.5t-83.5 -33.5q-47 0 -82.5 33.5t-35.5 86.5zM611 1382q0 53 35.5 87t83.5 34q47 0 82.5 -33.5t35.5 -87.5q0 -53 -35.5 -86.5t-82.5 -33.5 t-83 33.5t-36 86.5z" />
<glyph unicode="&#x100;" horiz-adv-x="1357" d="M16 0q82 225 154 416.5t140.5 363.5t136 329t141.5 310h182q74 -154 141.5 -310.5t136 -328.5t140.5 -363.5t153 -416.5h-217q-35 92 -65.5 181t-63.5 181h-643l-129 -362h-207zM410 526h528q-66 178 -130.5 345t-133.5 321q-72 -154 -136.5 -321t-127.5 -345zM387 1628 v147h582v-147h-582z" />
<glyph unicode="&#x101;" horiz-adv-x="1069" d="M88 317q0 88 36 151.5t97.5 102.5t143 57.5t172.5 18.5q29 0 59.5 -3t58 -8t48 -9t28.5 -6v53q0 47 -10 93t-37 82t-73 57.5t-119 21.5q-94 0 -165 -13.5t-106 -27.5l-22 157q37 16 123 32t186 16q115 0 193.5 -30t127 -84t69 -129t20.5 -165v-666q-25 -4 -69 -11 t-99.5 -13t-120 -11.5t-127.5 -5.5q-90 0 -166 18.5t-131 58.5t-86 105.5t-31 157.5zM281 319q0 -102 65.5 -142t177.5 -40q68 0 120 3t87 12v317q-20 10 -66.5 17.5t-111.5 7.5q-43 0 -91 -6.5t-88 -26t-66.5 -53.5t-26.5 -89zM248 1309v147h582v-147h-582z" />
<glyph unicode="&#x102;" horiz-adv-x="1357" d="M16 0q82 225 154 416.5t140.5 363.5t136 329t141.5 310h182q74 -154 141.5 -310.5t136 -328.5t140.5 -363.5t153 -416.5h-217q-35 92 -65.5 181t-63.5 181h-643l-129 -362h-207zM410 526h528q-66 178 -130.5 345t-133.5 321q-72 -154 -136.5 -321t-127.5 -345zM408 1853 h123q2 -23 9 -49.5t23.5 -48t45 -36t71.5 -14.5t72 14.5t45 36t23.5 48t9.5 49.5h123q2 -68 -18.5 -121t-58.5 -89t-88 -55.5t-108 -19.5q-57 0 -107.5 19.5t-88 55.5t-58 89t-18.5 121z" />
<glyph unicode="&#x103;" horiz-adv-x="1069" d="M88 317q0 88 36 151.5t97.5 102.5t143 57.5t172.5 18.5q29 0 59.5 -3t58 -8t48 -9t28.5 -6v53q0 47 -10 93t-37 82t-73 57.5t-119 21.5q-94 0 -165 -13.5t-106 -27.5l-22 157q37 16 123 32t186 16q115 0 193.5 -30t127 -84t69 -129t20.5 -165v-666q-25 -4 -69 -11 t-99.5 -13t-120 -11.5t-127.5 -5.5q-90 0 -166 18.5t-131 58.5t-86 105.5t-31 157.5zM281 319q0 -102 65.5 -142t177.5 -40q68 0 120 3t87 12v317q-20 10 -66.5 17.5t-111.5 7.5q-43 0 -91 -6.5t-88 -26t-66.5 -53.5t-26.5 -89zM266 1534h123q2 -23 9 -49.5t23.5 -48t45 -36 t71.5 -14.5t72 14.5t45 36t23.5 48t9.5 49.5h123q2 -68 -18.5 -121t-58.5 -89t-88 -55.5t-108 -19.5q-57 0 -107.5 19.5t-88 55.5t-58 89t-18.5 121z" />
<glyph unicode="&#x104;" horiz-adv-x="1357" d="M16 0q82 225 154 416.5t140.5 363.5t136 329t141.5 310h182q74 -154 141.5 -310.5t135 -327.5t139 -362.5t153.5 -414.5q-18 -10 -48.5 -30.5t-61.5 -53.5q-29 -33 -45.5 -57.5t-16.5 -52.5q0 -59 82 -60q14 0 38 3t46 11l15 -124q-23 -10 -59 -16.5t-77 -6.5 q-115 0 -170 42t-55 114q0 47 25.5 91t60.5 81q16 16 29.5 28.5t23.5 22.5q-35 92 -66.5 183t-64.5 183h-643l-129 -362h-207zM410 526h528q-66 178 -130.5 345t-133.5 321q-72 -154 -136.5 -321t-127.5 -345z" />
<glyph unicode="&#x105;" horiz-adv-x="1069" d="M88 317q0 88 36 151.5t97.5 102.5t143 57.5t172.5 18.5q29 0 59.5 -3t58 -8t48 -9t28.5 -6v53q0 47 -10 93t-37 82t-73 57.5t-119 21.5q-94 0 -165 -13.5t-106 -27.5l-22 157q37 16 123 32t186 16q115 0 193.5 -30t127 -84t69 -129t20.5 -165v-666q-25 -18 -54.5 -41.5 t-60.5 -56.5q-29 -33 -47.5 -57.5t-18.5 -52.5q0 -59 82 -60q14 0 38 3t46 11l15 -124q-23 -10 -59 -16.5t-77 -6.5q-115 0 -170 42t-55 114q0 47 28.5 91t63.5 81q10 12 24.5 23.5t24.5 21.5q-47 -4 -97 -8.5t-99 -4.5q-90 0 -166 18.5t-131 58.5t-86 105.5t-31 157.5z M281 319q0 -102 65.5 -142t177.5 -40q68 0 120 3t87 12v317q-20 10 -66.5 17.5t-111.5 7.5q-43 0 -91 -6.5t-88 -26t-66.5 -53.5t-26.5 -89z" />
<glyph unicode="&#x106;" horiz-adv-x="1269" d="M119 711q0 178 54 316t146.5 232.5t215 143.5t262.5 49q88 0 158.5 -12.5t122.5 -28.5t85 -32.5t45 -24.5l-57 -164q-18 12 -53 26.5t-79 29t-96.5 23.5t-105.5 9q-113 0 -203 -39t-153.5 -112.5t-97 -179t-33.5 -236.5q0 -127 29.5 -231.5t89 -179.5t148.5 -116t208 -41 q137 0 227 29t135 51l52 -164q-14 -10 -51.5 -25.5t-92.5 -29.5t-129 -24.5t-160 -10.5q-150 0 -272.5 49.5t-210.5 143.5t-136 232.5t-48 316.5zM614 1593l262 315l123 -121l-289 -280z" />
<glyph unicode="&#x107;" horiz-adv-x="952" d="M104 530q0 123 36 225.5t101.5 177.5t161 117t211.5 42q72 0 143.5 -12.5t137.5 -39.5l-43 -161q-43 20 -99.5 32.5t-119.5 12.5q-160 0 -245 -100.5t-85 -293.5q0 -86 19.5 -157.5t61.5 -122.5t107.5 -79t159.5 -28q76 0 137.5 14.5t96.5 30.5l26 -159 q-16 -10 -46.5 -19.5t-69.5 -16.5t-83 -12.5t-85 -5.5q-129 0 -226.5 41t-164 115t-99.5 175t-33 224zM450 1274l262 315l123 -121l-289 -280z" />
<glyph unicode="&#x108;" horiz-adv-x="1269" d="M119 711q0 178 54 316t146.5 232.5t215 143.5t262.5 49q88 0 158.5 -12.5t122.5 -28.5t85 -32.5t45 -24.5l-57 -164q-18 12 -53 26.5t-79 29t-96.5 23.5t-105.5 9q-113 0 -203 -39t-153.5 -112.5t-97 -179t-33.5 -236.5q0 -127 29.5 -231.5t89 -179.5t148.5 -116t208 -41 q137 0 227 29t135 51l52 -164q-14 -10 -51.5 -25.5t-92.5 -29.5t-129 -24.5t-160 -10.5q-150 0 -272.5 49.5t-210.5 143.5t-136 232.5t-48 316.5zM473 1601l279 293l279 -293l-80 -90l-199 180l-199 -180z" />
<glyph unicode="&#x109;" horiz-adv-x="952" d="M104 530q0 123 36 225.5t101.5 177.5t161 117t211.5 42q72 0 143.5 -12.5t137.5 -39.5l-43 -161q-43 20 -99.5 32.5t-119.5 12.5q-160 0 -245 -100.5t-85 -293.5q0 -86 19.5 -157.5t61.5 -122.5t107.5 -79t159.5 -28q76 0 137.5 14.5t96.5 30.5l26 -159 q-16 -10 -46.5 -19.5t-69.5 -16.5t-83 -12.5t-85 -5.5q-129 0 -226.5 41t-164 115t-99.5 175t-33 224zM309 1282l279 293l279 -293l-80 -90l-199 180l-199 -180z" />
<glyph unicode="&#x10a;" horiz-adv-x="1269" d="M119 711q0 178 54 316t146.5 232.5t215 143.5t262.5 49q88 0 158.5 -12.5t122.5 -28.5t85 -32.5t45 -24.5l-57 -164q-18 12 -53 26.5t-79 29t-96.5 23.5t-105.5 9q-113 0 -203 -39t-153.5 -112.5t-97 -179t-33.5 -236.5q0 -127 29.5 -231.5t89 -179.5t148.5 -116t208 -41 q137 0 227 29t135 51l52 -164q-14 -10 -51.5 -25.5t-92.5 -29.5t-129 -24.5t-160 -10.5q-150 0 -272.5 49.5t-210.5 143.5t-136 232.5t-48 316.5zM629 1701q0 57 36 91t87 34t87 -33.5t36 -91.5q0 -57 -36 -91t-87 -34t-87 34t-36 91z" />
<glyph unicode="&#x10b;" horiz-adv-x="952" d="M104 530q0 123 36 225.5t101.5 177.5t161 117t211.5 42q72 0 143.5 -12.5t137.5 -39.5l-43 -161q-43 20 -99.5 32.5t-119.5 12.5q-160 0 -245 -100.5t-85 -293.5q0 -86 19.5 -157.5t61.5 -122.5t107.5 -79t159.5 -28q76 0 137.5 14.5t96.5 30.5l26 -159 q-16 -10 -46.5 -19.5t-69.5 -16.5t-83 -12.5t-85 -5.5q-129 0 -226.5 41t-164 115t-99.5 175t-33 224zM465 1382q0 57 36 91t87 34t87 -33.5t36 -91.5q0 -57 -36 -91t-87 -34t-87 34t-36 91z" />
<glyph unicode="&#x10c;" horiz-adv-x="1269" d="M119 711q0 178 54 316t146.5 232.5t215 143.5t262.5 49q88 0 158.5 -12.5t122.5 -28.5t85 -32.5t45 -24.5l-57 -164q-18 12 -53 26.5t-79 29t-96.5 23.5t-105.5 9q-113 0 -203 -39t-153.5 -112.5t-97 -179t-33.5 -236.5q0 -127 29.5 -231.5t89 -179.5t148.5 -116t208 -41 q137 0 227 29t135 51l52 -164q-14 -10 -51.5 -25.5t-92.5 -29.5t-129 -24.5t-160 -10.5q-150 0 -272.5 49.5t-210.5 143.5t-136 232.5t-48 316.5zM473 1812l80 90l199 -180l199 180l80 -90l-279 -293z" />
<glyph unicode="&#x10d;" horiz-adv-x="952" d="M104 530q0 123 36 225.5t101.5 177.5t161 117t211.5 42q72 0 143.5 -12.5t137.5 -39.5l-43 -161q-43 20 -99.5 32.5t-119.5 12.5q-160 0 -245 -100.5t-85 -293.5q0 -86 19.5 -157.5t61.5 -122.5t107.5 -79t159.5 -28q76 0 137.5 14.5t96.5 30.5l26 -159 q-16 -10 -46.5 -19.5t-69.5 -16.5t-83 -12.5t-85 -5.5q-129 0 -226.5 41t-164 115t-99.5 175t-33 224zM309 1493l80 90l199 -180l199 180l80 -90l-279 -293z" />
<glyph unicode="&#x10e;" horiz-adv-x="1460" d="M176 23v1376q84 20 187.5 27.5t189.5 7.5q174 0 319.5 -44t250 -133.5t161.5 -225.5t57 -320t-57 -320.5t-161.5 -225.5t-250 -133t-319.5 -44q-86 0 -189.5 7.5t-187.5 27.5zM375 168q18 -2 64 -4t130 -2q283 0 422 144.5t139 404.5t-139 404.5t-422 144.5 q-84 0 -130 -2.5t-64 -4.5v-1085zM399 1812l80 90l199 -180l199 180l80 -90l-279 -293z" />
<glyph unicode="&#x10f;" horiz-adv-x="1273" d="M104 532q0 123 32 225.5t93.5 176.5t150.5 115t204 41q92 0 162.5 -25t105.5 -47v538l190 33v-1558q-66 -18 -168 -37t-235 -19q-123 0 -221.5 39t-168 111t-107.5 175t-38 232zM303 532q0 -186 92 -287.5t246 -101.5q78 0 130 7.5t81 15.5v674q-35 29 -100.5 55.5 t-143.5 26.5q-82 0 -140 -30t-95 -82t-53.5 -124t-16.5 -154zM1186 1133v456h182l-55 -456h-127z" />
<glyph unicode="&#x110;" horiz-adv-x="1486" d="M39 664v153h164v582q84 20 187.5 27.5t189.5 7.5q174 0 319 -44t249.5 -133.5t162 -225.5t57.5 -320t-57.5 -320.5t-162 -225.5t-249.5 -133t-319 -44q-86 0 -189.5 7t-187.5 28v641h-164zM401 168q18 -2 64.5 -4t130.5 -2q283 0 422 144.5t139 404.5t-139 404.5 t-422 144.5q-84 0 -130 -2.5t-65 -4.5v-436h267v-153h-267v-496z" />
<glyph unicode="&#x111;" horiz-adv-x="1206" d="M104 530q0 123 32 224.5t93.5 174t150.5 112.5t204 40q92 0 162.5 -24.5t105.5 -46.5v247h-363v142h363v157l190 33v-190h152v-142h-152v-1226q-66 -18 -168 -37t-235 -19q-123 0 -221.5 38t-168 111t-107.5 175t-38 231zM303 530q0 -186 92 -286.5t246 -100.5 q78 0 130 7.5t81 15.5v665q-35 29 -100.5 55.5t-143.5 26.5q-82 0 -140 -28.5t-95 -79.5t-53.5 -122t-16.5 -153z" />
<glyph unicode="&#x112;" horiz-adv-x="1169" d="M176 0v1419h866v-170h-667v-422h594v-165h-594v-492h719v-170h-918zM317 1628v147h582v-147h-582z" />
<glyph unicode="&#x113;" horiz-adv-x="1144" d="M104 530q0 141 41 247t109 175.5t156 104.5t180 35q215 0 329.5 -134.5t114.5 -408.5v-32q0 -19 -2 -36h-729q12 -166 96 -252t263 -86q100 0 168.5 17.5t103.5 34.5l27 -160q-35 -18 -122 -39t-198 -21q-139 0 -240.5 42t-167 116t-97.5 175t-32 222zM307 635h529 q2 129 -64.5 212t-183.5 83q-66 0 -116 -25.5t-85 -66.5t-54.5 -94.5t-25.5 -108.5zM278 1309v147h582v-147h-582z" />
<glyph unicode="&#x114;" horiz-adv-x="1169" d="M176 0v1419h866v-170h-667v-422h594v-165h-594v-492h719v-170h-918zM318 1853h123q2 -23 9 -49.5t23.5 -48t45 -36t71.5 -14.5t72 14.5t45 36t23.5 48t9.5 49.5h123q2 -68 -18.5 -121t-58.5 -89t-88 -55.5t-108 -19.5q-57 0 -107.5 19.5t-88 55.5t-58 89t-18.5 121z" />
<glyph unicode="&#x115;" horiz-adv-x="1144" d="M104 530q0 141 41 247t109 175.5t156 104.5t180 35q215 0 329.5 -134.5t114.5 -408.5v-32q0 -19 -2 -36h-729q12 -166 96 -252t263 -86q100 0 168.5 17.5t103.5 34.5l27 -160q-35 -18 -122 -39t-198 -21q-139 0 -240.5 42t-167 116t-97.5 175t-32 222zM307 635h529 q2 129 -64.5 212t-183.5 83q-66 0 -116 -25.5t-85 -66.5t-54.5 -94.5t-25.5 -108.5zM305 1534h123q2 -23 9 -49.5t23.5 -48t45 -36t71.5 -14.5t72 14.5t45 36t23.5 48t9.5 49.5h123q2 -68 -18.5 -121t-58.5 -89t-88 -55.5t-108 -19.5q-57 0 -107.5 19.5t-88 55.5t-58 89 t-18.5 121z" />
<glyph unicode="&#x116;" horiz-adv-x="1169" d="M176 0v1419h866v-170h-667v-422h594v-165h-594v-492h719v-170h-918zM485 1701q0 57 36 91t87 34t87 -33.5t36 -91.5q0 -57 -36 -91t-87 -34t-87 34t-36 91z" />
<glyph unicode="&#x117;" horiz-adv-x="1144" d="M104 530q0 141 41 247t109 175.5t156 104.5t180 35q215 0 329.5 -134.5t114.5 -408.5v-32q0 -19 -2 -36h-729q12 -166 96 -252t263 -86q100 0 168.5 17.5t103.5 34.5l27 -160q-35 -18 -122 -39t-198 -21q-139 0 -240.5 42t-167 116t-97.5 175t-32 222zM307 635h529 q2 129 -64.5 212t-183.5 83q-66 0 -116 -25.5t-85 -66.5t-54.5 -94.5t-25.5 -108.5zM463 1382q0 57 36 91t87 34t87 -33.5t36 -91.5q0 -57 -36 -91t-87 -34t-87 34t-36 91z" />
<glyph unicode="&#x118;" horiz-adv-x="1169" d="M176 0v1419h866v-170h-667v-422h594v-165h-594v-492h719v-166q-18 -10 -49 -30.5t-62 -53.5q-29 -33 -45 -57.5t-16 -52.5q0 -59 82 -60q14 0 37.5 3t45.5 11l15 -124q-23 -10 -58.5 -16.5t-76.5 -6.5q-115 0 -170.5 42t-55.5 114q0 47 26 91t60 81l30 29q13 13 30 26 h-711z" />
<glyph unicode="&#x119;" horiz-adv-x="1144" d="M104 530q0 141 41 247t109 175.5t156 104.5t180 35q215 0 329.5 -134.5t114.5 -408.5v-32q0 -19 -2 -36h-729q12 -166 96 -252t263 -86q100 0 168.5 17.5t103.5 34.5l27 -160l-70 -53q-35 -27 -68 -62q-35 -35 -50 -60.5t-15 -49.5q0 -35 23.5 -47.5t58.5 -12.5 q25 0 47 5t37 9l14 -124q-25 -12 -63.5 -17.5t-71.5 -5.5q-104 0 -164.5 37t-60.5 119q0 47 33.5 100t97.5 107q-16 -2 -34 -3.5t-34 -1.5q-139 0 -240.5 42t-167 116t-97.5 175t-32 222zM307 635h529q2 129 -64.5 212t-183.5 83q-66 0 -116 -25.5t-85 -66.5t-54.5 -94.5 t-25.5 -108.5z" />
<glyph unicode="&#x11a;" horiz-adv-x="1169" d="M176 0v1419h866v-170h-667v-422h594v-165h-594v-492h719v-170h-918zM311 1812l80 90l199 -180l199 180l80 -90l-279 -293z" />
<glyph unicode="&#x11b;" horiz-adv-x="1144" d="M104 530q0 141 41 247t109 175.5t156 104.5t180 35q215 0 329.5 -134.5t114.5 -408.5v-32q0 -19 -2 -36h-729q12 -166 96 -252t263 -86q100 0 168.5 17.5t103.5 34.5l27 -160q-35 -18 -122 -39t-198 -21q-139 0 -240.5 42t-167 116t-97.5 175t-32 222zM307 635h529 q2 129 -64.5 212t-183.5 83q-66 0 -116 -25.5t-85 -66.5t-54.5 -94.5t-25.5 -108.5zM307 1493l80 90l199 -180l199 180l80 -90l-279 -293z" />
<glyph unicode="&#x11c;" horiz-adv-x="1376" d="M119 711q0 178 54 316t146.5 232.5t216 143.5t265.5 49q96 0 171 -12.5t128 -28.5t87 -32.5t46 -24.5l-64 -166q-59 39 -157.5 64.5t-200.5 25.5q-109 0 -198 -39t-151.5 -112.5t-97 -179t-34.5 -236.5q0 -127 29.5 -231.5t90 -179.5t149.5 -116t210 -41q86 0 146.5 9.5 t86.5 17.5v528h199v-663q-25 -8 -71 -18.5t-106 -20.5t-132 -17.5t-146 -7.5q-150 0 -272.5 49.5t-210.5 143.5t-136 231.5t-48 315.5zM489 1601l279 293l279 -293l-80 -90l-199 180l-199 -180z" />
<glyph unicode="&#x11d;" horiz-adv-x="1183" d="M104 555q0 117 35 214t101.5 168t163 110.5t217.5 39.5q133 0 232 -19t167 -36v-950q0 -246 -127 -356.5t-385 -110.5q-100 0 -189.5 16.5t-154.5 38.5l35 166q57 -23 140 -40t173 -17q170 0 244.5 67.5t74.5 214.5v45q-25 -16 -95 -41.5t-165 -25.5q-96 0 -181 30.5 t-148.5 95t-100.5 161t-37 229.5zM303 553q0 -92 23.5 -157.5t63.5 -108.5t92.5 -63.5t107.5 -20.5q76 0 139.5 21.5t99.5 49.5v623q-29 8 -76.5 15.5t-129.5 7.5q-154 0 -237 -100.5t-83 -266.5zM342 1282l279 293l279 -293l-80 -90l-199 180l-199 -180z" />
<glyph unicode="&#x11e;" horiz-adv-x="1376" d="M119 711q0 178 54 316t146.5 232.5t216 143.5t265.5 49q96 0 171 -12.5t128 -28.5t87 -32.5t46 -24.5l-64 -166q-59 39 -157.5 64.5t-200.5 25.5q-109 0 -198 -39t-151.5 -112.5t-97 -179t-34.5 -236.5q0 -127 29.5 -231.5t90 -179.5t149.5 -116t210 -41q86 0 146.5 9.5 t86.5 17.5v528h199v-663q-25 -8 -71 -18.5t-106 -20.5t-132 -17.5t-146 -7.5q-150 0 -272.5 49.5t-210.5 143.5t-136 231.5t-48 315.5zM496 1853h123q2 -23 9 -49.5t23.5 -48t45 -36t71.5 -14.5t72 14.5t45 36t23.5 48t9.5 49.5h123q2 -68 -18.5 -121t-58.5 -89t-88 -55.5 t-108 -19.5q-57 0 -107.5 19.5t-88 55.5t-58 89t-18.5 121z" />
<glyph unicode="&#x11f;" horiz-adv-x="1183" d="M104 555q0 117 35 214t101.5 168t163 110.5t217.5 39.5q133 0 232 -19t167 -36v-950q0 -246 -127 -356.5t-385 -110.5q-100 0 -189.5 16.5t-154.5 38.5l35 166q57 -23 140 -40t173 -17q170 0 244.5 67.5t74.5 214.5v45q-25 -16 -95 -41.5t-165 -25.5q-96 0 -181 30.5 t-148.5 95t-100.5 161t-37 229.5zM303 553q0 -92 23.5 -157.5t63.5 -108.5t92.5 -63.5t107.5 -20.5q76 0 139.5 21.5t99.5 49.5v623q-29 8 -76.5 15.5t-129.5 7.5q-154 0 -237 -100.5t-83 -266.5zM348 1534h123q2 -23 9 -49.5t23.5 -48t45 -36t71.5 -14.5t72 14.5t45 36 t23.5 48t9.5 49.5h123q2 -68 -18.5 -121t-58.5 -89t-88 -55.5t-108 -19.5q-57 0 -107.5 19.5t-88 55.5t-58 89t-18.5 121z" />
<glyph unicode="&#x120;" horiz-adv-x="1376" d="M119 711q0 178 54 316t146.5 232.5t216 143.5t265.5 49q96 0 171 -12.5t128 -28.5t87 -32.5t46 -24.5l-64 -166q-59 39 -157.5 64.5t-200.5 25.5q-109 0 -198 -39t-151.5 -112.5t-97 -179t-34.5 -236.5q0 -127 29.5 -231.5t90 -179.5t149.5 -116t210 -41q86 0 146.5 9.5 t86.5 17.5v528h199v-663q-25 -8 -71 -18.5t-106 -20.5t-132 -17.5t-146 -7.5q-150 0 -272.5 49.5t-210.5 143.5t-136 231.5t-48 315.5zM645 1701q0 57 36 91t87 34t87 -33.5t36 -91.5q0 -57 -36 -91t-87 -34t-87 34t-36 91z" />
<glyph unicode="&#x121;" horiz-adv-x="1183" d="M104 555q0 117 35 214t101.5 168t163 110.5t217.5 39.5q133 0 232 -19t167 -36v-950q0 -246 -127 -356.5t-385 -110.5q-100 0 -189.5 16.5t-154.5 38.5l35 166q57 -23 140 -40t173 -17q170 0 244.5 67.5t74.5 214.5v45q-25 -16 -95 -41.5t-165 -25.5q-96 0 -181 30.5 t-148.5 95t-100.5 161t-37 229.5zM303 553q0 -92 23.5 -157.5t63.5 -108.5t92.5 -63.5t107.5 -20.5q76 0 139.5 21.5t99.5 49.5v623q-29 8 -76.5 15.5t-129.5 7.5q-154 0 -237 -100.5t-83 -266.5zM498 1382q0 57 36 91t87 34t87 -33.5t36 -91.5q0 -57 -36 -91t-87 -34 t-87 34t-36 91z" />
<glyph unicode="&#x122;" horiz-adv-x="1376" d="M119 711q0 178 54 316t146.5 232.5t216 143.5t265.5 49q96 0 171 -12.5t128 -28.5t87 -32.5t46 -24.5l-64 -166q-59 39 -157.5 64.5t-200.5 25.5q-109 0 -198 -39t-151.5 -112.5t-97 -179t-34.5 -236.5q0 -127 29.5 -231.5t90 -179.5t149.5 -116t210 -41q86 0 146.5 9.5 t86.5 17.5v528h199v-663q-25 -8 -71 -18.5t-106 -20.5t-132 -17.5t-146 -7.5q-150 0 -272.5 49.5t-210.5 143.5t-136 231.5t-48 315.5zM551 -262q31 0 56.5 4t42 17.5t25.5 40t9 71.5v27h182q2 -10 2 -24v-19q0 -66 -19.5 -111t-52 -73.5t-76.5 -42t-93 -13.5q-27 0 -48.5 2 t-27.5 6v115z" />
<glyph unicode="&#x123;" horiz-adv-x="1183" d="M104 555q0 117 35 214t101.5 168t163 110.5t217.5 39.5q133 0 232 -19t167 -36v-950q0 -246 -127 -356.5t-385 -110.5q-100 0 -189.5 16.5t-154.5 38.5l35 166q57 -23 140 -40t173 -17q170 0 244.5 67.5t74.5 214.5v45q-25 -16 -95 -41.5t-165 -25.5q-96 0 -181 30.5 t-148.5 95t-100.5 161t-37 229.5zM303 553q0 -92 23.5 -157.5t63.5 -108.5t92.5 -63.5t107.5 -20.5q76 0 139.5 21.5t99.5 49.5v623q-29 8 -76.5 15.5t-129.5 7.5q-154 0 -237 -100.5t-83 -266.5zM526 1271v19q0 74 20.5 128.5t54.5 91t75 58t81 31.5l68 -92 q-25 -18 -46.5 -36.5t-36.5 -44t-23.5 -61.5t-8.5 -91v-27h-182q-2 11 -2 24z" />
<glyph unicode="&#x124;" horiz-adv-x="1443" d="M176 0v1419h199v-592h694v592h199v-1419h-199v655h-694v-655h-199zM442 1601l279 293l279 -293l-80 -90l-199 180l-199 -180z" />
<glyph unicode="&#x125;" horiz-adv-x="1169" d="M164 0v1556l190 33v-545q53 20 113.5 31.5t120.5 11.5q127 0 211 -35.5t134 -100t70.5 -154.5t20.5 -199v-598h-190v557q0 98 -13.5 168t-44.5 113t-82 62.5t-127 19.5q-31 0 -63.5 -4.5t-62 -9.5t-53 -11t-34.5 -10v-885h-190zM108 1776l252 194l252 -194l-59 -93 l-193 125l-192 -125z" />
<glyph unicode="&#x126;" horiz-adv-x="1497" d="M39 1071v146h164v202h198v-202h695v202h198v-202h164v-146h-164v-1071h-198v655h-695v-655h-198v1071h-164zM401 827h695v244h-695v-244z" />
<glyph unicode="&#x127;" horiz-adv-x="1169" d="M12 1257v142h152v157l190 33v-190h363v-142h-363v-221q53 20 113.5 31.5t120.5 11.5q127 0 211 -35.5t134 -100t70.5 -155t20.5 -198.5v-590h-190v549q0 98 -13.5 167.5t-44.5 112.5t-82 62.5t-127 19.5q-31 0 -63.5 -4t-62 -9t-53 -11t-34.5 -10v-877h-190v1257h-152z " />
<glyph unicode="&#x128;" horiz-adv-x="550" d="M176 0v1419h199v-1419h-199zM-59 1628q8 25 26.5 57.5t45 60t62.5 47t79 19.5q41 0 77 -14.5t69 -30.5q35 -16 59 -24.5t47 -8.5q35 0 64.5 29t46.5 61l98 -49q-10 -25 -27.5 -57.5t-44 -60t-62.5 -47t-79 -19.5q-41 0 -77 14t-69 31q-35 16 -59 24.5t-47 8.5 q-35 0 -64.5 -29t-46.5 -61z" />
<glyph unicode="&#x129;" horiz-adv-x="518" d="M164 0v1065h190v-1065h-190zM-76 1309q8 25 26.5 57.5t45 60t62.5 47t79 19.5q41 0 77 -14.5t69 -30.5q35 -16 59 -24.5t47 -8.5q35 0 64.5 29t46.5 61l98 -49q-10 -25 -27.5 -57.5t-44 -60t-62.5 -47t-79 -19.5q-41 0 -77 14t-69 31q-35 16 -59 24.5t-47 8.5 q-35 0 -64.5 -29t-46.5 -61z" />
<glyph unicode="&#x12a;" horiz-adv-x="550" d="M176 0v1419h199v-1419h-199zM-15 1628v147h582v-147h-582z" />
<glyph unicode="&#x12b;" horiz-adv-x="518" d="M164 0v1065h190v-1065h-190zM-31 1309v147h582v-147h-582z" />
<glyph unicode="&#x12c;" horiz-adv-x="550" d="M176 0v1419h199v-1419h-199zM4 1853h123q2 -23 9 -49.5t23.5 -48t45 -36t71.5 -14.5t72 14.5t45 36t23.5 48t9.5 49.5h123q2 -68 -18.5 -121t-58.5 -89t-88 -55.5t-108 -19.5q-57 0 -107.5 19.5t-88 55.5t-58 89t-18.5 121z" />
<glyph unicode="&#x12d;" horiz-adv-x="518" d="M164 0v1065h190v-1065h-190zM-12 1534h123q2 -23 9 -49.5t23.5 -48t45 -36t71.5 -14.5t72 14.5t45 36t23.5 48t9.5 49.5h123q2 -68 -18.5 -121t-58.5 -89t-88 -55.5t-108 -19.5q-57 0 -107.5 19.5t-88 55.5t-58 89t-18.5 121z" />
<glyph unicode="&#x12e;" horiz-adv-x="550" d="M35 -227q0 47 26.5 91t61.5 81l30 29q13 13 23 22v1423h199v-1419q-23 -16 -46.5 -34.5t-47.5 -45.5q-29 -33 -47.5 -57.5t-18.5 -52.5q0 -59 82 -60q14 0 37.5 3t46.5 11l14 -124q-49 -23 -135 -23q-117 0 -171 42t-54 114z" />
<glyph unicode="&#x12f;" horiz-adv-x="518" d="M18 -227q0 47 27 90t61 82q16 18 31 31.5t27 23.5v1065h190v-1065q-49 -37 -90 -80q-29 -33 -47 -57.5t-18 -52.5q0 -59 82 -60q14 0 37.5 3t46.5 11l14 -124q-49 -23 -135 -23q-117 0 -171.5 42t-54.5 114zM135 1382q0 57 36 91t87 34t87 -33.5t36 -91.5q0 -57 -36 -91 t-87 -34t-87 34t-36 91z" />
<glyph unicode="&#x130;" horiz-adv-x="550" d="M176 0v1419h199v-1419h-199zM153 1701q0 57 36 91t87 34t87 -33.5t36 -91.5q0 -57 -36 -91t-87 -34t-87 34t-36 91z" />
<glyph unicode="&#x131;" horiz-adv-x="518" d="M164 0v1065h190v-1065h-190z" />
<glyph unicode="&#x132;" horiz-adv-x="1572" d="M176 0v1419h199v-1419h-199zM575 84l78 158q43 -31 111.5 -65t171.5 -34q147 0 214.5 75t67.5 257v944h199v-962q0 -102 -21.5 -190.5t-75.5 -155t-145.5 -104.5t-228.5 -38q-70 0 -128 11.5t-105.5 29t-82.5 37t-55 37.5z" />
<glyph unicode="&#x133;" horiz-adv-x="1044" d="M135 1382q0 57 36 91t87 34t87 -33.5t36 -91.5q0 -57 -36 -91t-87 -34t-87 34t-36 91zM164 0v1065h190v-1065h-190zM387 -360l24 155q20 -6 47 -10t50 -4q98 0 140 60.5t42 176.5v1047h190v-1045q0 -205 -93 -304t-271 -99q-25 0 -63.5 6.5t-65.5 16.5zM661 1382 q0 57 36 91t87 34t87 -33.5t36 -91.5q0 -57 -36 -91t-87 -34t-87 34t-36 91z" />
<glyph unicode="&#x134;" horiz-adv-x="1024" d="M16 84l78 158q43 -31 111.5 -65t171.5 -34q147 0 214.5 75t67.5 257v944h199v-962q0 -102 -21.5 -190.5t-75.5 -155t-145.5 -104.5t-228.5 -38q-70 0 -128 11.5t-105.5 29t-82.5 37t-55 37.5zM479 1601l279 293l279 -293l-80 -90l-199 180l-199 -180z" />
<glyph unicode="&#x135;" horiz-adv-x="518" d="M-139 -356l24 155q20 -6 47 -10t50 -4q98 0 140 60.5t42 177.5v1042h190v-1040q0 -205 -93 -304.5t-271 -99.5q-25 0 -63.5 6.5t-65.5 16.5zM-19 1282l279 293l279 -293l-80 -90l-199 180l-199 -180z" />
<glyph unicode="&#x136;" horiz-adv-x="1288" d="M176 0v1419h199v-626q72 68 157.5 152.5t169.5 170.5t159 165t126 138h240q-63 -70 -143 -154.5t-167.5 -174t-173.5 -175.5t-161 -159q88 -61 186 -151.5t192.5 -193t177.5 -209t138 -202.5h-234q-61 96 -141 193.5t-169 186.5t-180 165t-177 129v-674h-199zM459 -262 q31 0 56.5 4t42 17.5t25.5 40t9 71.5v27h182q2 -10 2 -24v-19q0 -66 -19.5 -111t-52 -73.5t-76.5 -42t-93 -13.5q-27 0 -48.5 2t-27.5 6v115z" />
<glyph unicode="&#x137;" horiz-adv-x="1069" d="M164 0v1556l190 33v-971l109 109q59 59 116.5 120.5t108.5 118t88 99.5h223q-47 -51 -102 -112.5t-114.5 -124t-120 -125t-113.5 -117.5q61 -47 130 -117t135.5 -150.5t125.5 -163.5t100 -155h-223q-43 72 -99 146.5t-117.5 143t-125 126t-121.5 96.5v-512h-190z M344 -262q31 0 56.5 4t42 17.5t25.5 40t9 71.5v27h182q2 -10 2 -24v-19q0 -66 -19.5 -111t-52 -73.5t-76.5 -42t-93 -13.5q-27 0 -48.5 2t-27.5 6v115z" />
<glyph unicode="&#x138;" horiz-adv-x="1099" d="M164 0v1065h190v-457q49 47 112.5 109.5t128 127t120 123t90.5 97.5h221q-45 -49 -105.5 -111.5t-125 -128t-128 -130t-114.5 -115.5q63 -45 137 -114t144.5 -148.5t132 -162.5t104.5 -155h-225q-45 70 -105.5 142.5t-126 140t-133 125t-127.5 96.5v-504h-190z" />
<glyph unicode="&#x139;" horiz-adv-x="1062" d="M176 0v1419h199v-1247h655v-172h-854zM188 1593l262 315l123 -121l-289 -280z" />
<glyph unicode="&#x13a;" horiz-adv-x="559" d="M160 279v1277l190 33v-1280q0 -47 8.5 -77.5t26.5 -49t49 -28t76 -15.5l-27 -159q-176 4 -249.5 75.5t-73.5 223.5zM120 1790l330 160l58 -150l-345 -123z" />
<glyph unicode="&#x13b;" horiz-adv-x="1062" d="M176 0v1419h199v-1247h655v-172h-854zM385 -262q31 0 56.5 4t42 17.5t25.5 40t9 71.5v27h182q2 -10 2 -24v-19q0 -66 -19.5 -111t-52 -73.5t-76.5 -42t-93 -13.5q-27 0 -48.5 2t-27.5 6v115z" />
<glyph unicode="&#x13c;" horiz-adv-x="559" d="M160 279v1277l190 33v-1280q0 -47 8.5 -77.5t26.5 -49t49 -28t76 -15.5l-27 -159q-176 4 -249.5 75.5t-73.5 223.5zM80 -262q31 0 56.5 4t42 17.5t25.5 40t9 71.5v27h182q2 -10 2 -24v-19q0 -66 -19.5 -111t-52 -73.5t-76.5 -42t-93 -13.5q-27 0 -48.5 2t-27.5 6v115z " />
<glyph unicode="&#x13d;" horiz-adv-x="1062" d="M176 0v1419h199v-1247h655v-172h-854zM559 965v456h182l-55 -456h-127z" />
<glyph unicode="&#x13e;" horiz-adv-x="581" d="M160 279v1277l190 33v-1280q0 -47 8.5 -77.5t26.5 -49t49 -28t76 -15.5l-27 -159q-176 4 -249.5 75.5t-73.5 223.5zM493 1133v456h182l-55 -456h-127z" />
<glyph unicode="&#x13f;" horiz-adv-x="1062" d="M176 0v1419h199v-1247h655v-172h-854zM686 743q0 57 36 91t87 34t87 -33.5t36 -91.5q0 -57 -36 -91t-87 -34t-87 34t-36 91z" />
<glyph unicode="&#x140;" horiz-adv-x="755" d="M160 279v1277l190 33v-1280q0 -47 8.5 -77.5t26.5 -49t49 -28t76 -15.5l-27 -159q-176 4 -249.5 75.5t-73.5 223.5zM514 743q0 57 36 91t87 34t87 -33.5t36 -91.5q0 -57 -36 -91t-87 -34t-87 34t-36 91z" />
<glyph unicode="&#x141;" horiz-adv-x="1099" d="M-4 645l217 111v663h199v-561l237 123l66 -135l-303 -158v-516h655v-172h-854v586l-150 -76z" />
<glyph unicode="&#x142;" horiz-adv-x="587" d="M6 764l182 92v700l191 33v-635l149 78l64 -127l-213 -110v-486q0 -47 8 -77.5t26.5 -49t49.5 -28t76 -15.5l-27 -159q-176 4 -250 75.5t-74 223.5v417l-116 -59z" />
<glyph unicode="&#x143;" horiz-adv-x="1490" d="M176 0v1419h158q96 -102 205.5 -238.5t217 -280.5t203 -283.5t160.5 -247.5v1050h195v-1419h-166q-45 76 -103.5 170t-126 195.5t-140 206t-144.5 201.5t-139.5 183t-124.5 152v-1108h-195zM608 1593l262 315l123 -121l-289 -280z" />
<glyph unicode="&#x144;" d="M164 0v1034q66 16 174 34.5t250 18.5q127 0 211 -35.5t134 -100t70.5 -154.5t20.5 -199v-598h-190v557q0 98 -13.5 168t-44.5 113t-82 62.5t-127 19.5q-31 0 -63.5 -2.5t-62 -5.5t-53 -7t-34.5 -6v-899h-190zM457 1274l262 315l123 -121l-289 -280z" />
<glyph unicode="&#x145;" horiz-adv-x="1490" d="M176 0v1419h158q96 -102 205.5 -238.5t217 -280.5t203 -283.5t160.5 -247.5v1050h195v-1419h-166q-45 76 -103.5 170t-126 195.5t-140 206t-144.5 201.5t-139.5 183t-124.5 152v-1108h-195zM528 -262q31 0 56.5 4t42 17.5t25.5 40t9 71.5v27h182q2 -10 2 -24v-19 q0 -66 -19.5 -111t-52 -73.5t-76.5 -42t-93 -13.5q-27 0 -48.5 2t-27.5 6v115z" />
<glyph unicode="&#x146;" d="M164 0v1034q66 16 174 34.5t250 18.5q127 0 211 -35.5t134 -100t70.5 -154.5t20.5 -199v-598h-190v557q0 98 -13.5 168t-44.5 113t-82 62.5t-127 19.5q-31 0 -63.5 -2.5t-62 -5.5t-53 -7t-34.5 -6v-899h-190zM377 -262q31 0 56.5 4t42 17.5t25.5 40t9 71.5v27h182 q2 -10 2 -24v-19q0 -66 -19.5 -111t-52 -73.5t-76.5 -42t-93 -13.5q-27 0 -48.5 2t-27.5 6v115z" />
<glyph unicode="&#x147;" horiz-adv-x="1490" d="M176 0v1419h158q96 -102 205.5 -238.5t217 -280.5t203 -283.5t160.5 -247.5v1050h195v-1419h-166q-45 76 -103.5 170t-126 195.5t-140 206t-144.5 201.5t-139.5 183t-124.5 152v-1108h-195zM466 1812l80 90l199 -180l199 180l80 -90l-279 -293z" />
<glyph unicode="&#x148;" d="M164 0v1034q66 16 174 34.5t250 18.5q127 0 211 -35.5t134 -100t70.5 -154.5t20.5 -199v-598h-190v557q0 98 -13.5 168t-44.5 113t-82 62.5t-127 19.5q-31 0 -63.5 -2.5t-62 -5.5t-53 -7t-34.5 -6v-899h-190zM315 1493l80 90l199 -180l199 180l80 -90l-279 -293z" />
<glyph unicode="&#x149;" d="M164 0v1034q66 16 174 34.5t250 18.5q127 0 211 -35.5t134 -100t70.5 -154.5t20.5 -199v-598h-190v557q0 98 -13.5 168t-44.5 113t-82 62.5t-127 19.5q-31 0 -63.5 -2.5t-62 -5.5t-53 -7t-34.5 -6v-899h-190zM15 1206q39 78 56 153t17 152q0 20 -1 43t-3 35h197v-38 q0 -15 -2 -35q-8 -104 -43 -191.5t-84 -165.5z" />
<glyph unicode="&#x14a;" horiz-adv-x="1490" d="M176 0v1419h158q96 -102 205.5 -238.5t217 -280.5t203 -283.5t160.5 -247.5v1050h195v-1419q0 -94 -12.5 -166t-45 -120t-92 -72.5t-151.5 -24.5q-29 0 -67 5t-60 11l18 150q16 -6 44 -8t44 -2q76 0 101.5 50t25.5 142v84q-72 117 -167 262.5t-197.5 291t-202.5 279.5 t-182 226v-1108h-195z" />
<glyph unicode="&#x14b;" d="M164 0v1034q66 16 174 34.5t250 18.5q127 0 211 -35.5t134 -100t70.5 -154.5t20.5 -199v-598q0 -94 -13.5 -166t-47 -120t-93 -72.5t-151.5 -24.5q-29 0 -67 5t-60 11l18 150q16 -6 44 -8t44 -2q76 0 106 50t30 142v592q0 98 -13.5 168t-44.5 113t-82 62.5t-127 19.5 q-31 0 -63.5 -2.5t-62 -5.5t-53 -7t-34.5 -6v-899h-190z" />
<glyph unicode="&#x14c;" horiz-adv-x="1593" d="M119 711q0 182 54 321t147.5 232.5t217.5 140.5t263 47q137 0 259 -47t214 -140.5t146.5 -232.5t54.5 -321t-54.5 -321.5t-146.5 -233t-214 -140.5t-259 -47q-139 0 -263 47t-217.5 140.5t-147.5 233t-54 321.5zM328 711q0 -129 32.5 -234.5t93 -179.5t147.5 -114 t196 -40t194.5 40t146 114t93.5 179.5t33 234.5t-33 234.5t-93.5 179t-146.5 113.5t-194 40q-109 0 -196 -40t-147.5 -113.5t-93 -179t-32.5 -234.5zM506 1628v147h582v-147h-582z" />
<glyph unicode="&#x14d;" horiz-adv-x="1208" d="M104 532q0 125 37 228.5t103.5 177.5t159 114t200.5 40q109 0 201 -40t158.5 -114t103.5 -177.5t37 -228.5q0 -127 -37 -229t-103.5 -176t-158.5 -114t-201 -40t-201 40t-158.5 114t-103.5 176t-37 229zM303 532q0 -180 81 -285.5t220 -105.5t220 105.5t81 285.5t-81 286 t-220 106t-220 -106t-81 -286zM313 1309v147h582v-147h-582z" />
<glyph unicode="&#x14e;" horiz-adv-x="1593" d="M119 711q0 182 54 321t147.5 232.5t217.5 140.5t263 47q137 0 259 -47t214 -140.5t146.5 -232.5t54.5 -321t-54.5 -321.5t-146.5 -233t-214 -140.5t-259 -47q-139 0 -263 47t-217.5 140.5t-147.5 233t-54 321.5zM328 711q0 -129 32.5 -234.5t93 -179.5t147.5 -114 t196 -40t194.5 40t146 114t93.5 179.5t33 234.5t-33 234.5t-93.5 179t-146.5 113.5t-194 40q-109 0 -196 -40t-147.5 -113.5t-93 -179t-32.5 -234.5zM525 1853h123q2 -23 9 -49.5t23.5 -48t45 -36t71.5 -14.5t72 14.5t45 36t23.5 48t9.5 49.5h123q2 -68 -18.5 -121 t-58.5 -89t-88 -55.5t-108 -19.5q-57 0 -107.5 19.5t-88 55.5t-58 89t-18.5 121z" />
<glyph unicode="&#x14f;" horiz-adv-x="1208" d="M104 532q0 125 37 228.5t103.5 177.5t159 114t200.5 40q109 0 201 -40t158.5 -114t103.5 -177.5t37 -228.5q0 -127 -37 -229t-103.5 -176t-158.5 -114t-201 -40t-201 40t-158.5 114t-103.5 176t-37 229zM303 532q0 -180 81 -285.5t220 -105.5t220 105.5t81 285.5t-81 286 t-220 106t-220 -106t-81 -286zM332 1534h123q2 -23 9 -49.5t23.5 -48t45 -36t71.5 -14.5t72 14.5t45 36t23.5 48t9.5 49.5h123q2 -68 -18.5 -121t-58.5 -89t-88 -55.5t-108 -19.5q-57 0 -107.5 19.5t-88 55.5t-58 89t-18.5 121z" />
<glyph unicode="&#x150;" horiz-adv-x="1593" d="M119 711q0 182 54 321t147.5 232.5t217.5 140.5t263 47q137 0 259 -47t214 -140.5t146.5 -232.5t54.5 -321t-54.5 -321.5t-146.5 -233t-214 -140.5t-259 -47q-139 0 -263 47t-217.5 140.5t-147.5 233t-54 321.5zM328 711q0 -129 32.5 -234.5t93 -179.5t147.5 -114 t196 -40t194.5 40t146 114t93.5 179.5t33 234.5t-33 234.5t-93.5 179t-146.5 113.5t-194 40q-109 0 -196 -40t-147.5 -113.5t-93 -179t-32.5 -234.5zM539 1581l235 327l115 -114l-252 -287zM877 1581l235 327l115 -114l-252 -287z" />
<glyph unicode="&#x151;" horiz-adv-x="1208" d="M104 532q0 125 37 228.5t103.5 177.5t159 114t200.5 40q109 0 201 -40t158.5 -114t103.5 -177.5t37 -228.5q0 -127 -37 -229t-103.5 -176t-158.5 -114t-201 -40t-201 40t-158.5 114t-103.5 176t-37 229zM303 532q0 -180 81 -285.5t220 -105.5t220 105.5t81 285.5t-81 286 t-220 106t-220 -106t-81 -286zM346 1262l235 327l115 -114l-252 -287zM684 1262l235 327l115 -114l-252 -287z" />
<glyph unicode="&#x152;" horiz-adv-x="2033" d="M119 711q0 182 59.5 317t162.5 225t244.5 135.5t307.5 45.5q47 0 104.5 -4.5t108.5 -10.5h801v-166h-637v-428h563v-161h-563v-498h688v-166h-852q-51 -6 -109.5 -10t-105.5 -4q-166 0 -307.5 45t-244.5 135t-161.5 226.5t-58.5 318.5zM330 711q0 -131 39 -233.5 t111.5 -173.5t177 -108.5t233.5 -37.5q47 0 81 1t56 3q25 2 43 6v1083q-45 6 -90 8.5t-90 2.5q-129 0 -233.5 -38t-177 -109t-111.5 -173t-39 -231z" />
<glyph unicode="&#x153;" horiz-adv-x="1939" d="M104 532q0 125 37 228.5t103.5 177.5t159 114t200.5 40q129 0 230.5 -60.5t164.5 -165.5q68 115 171.5 170.5t213.5 55.5q213 0 329 -135.5t116 -407.5q0 -16 -1 -27.5t-1 -21.5v-19h-729q12 -164 97 -251t261 -87q100 0 169 17.5t104 34.5l26 -160q-35 -18 -122 -39 t-197 -21q-162 0 -269.5 59.5t-167.5 164.5q-66 -111 -166 -168.5t-229 -57.5q-109 0 -201 40t-158.5 114t-103.5 176t-37 229zM303 532q0 -180 81 -285.5t220 -105.5t220 105.5t81 285.5t-81 286t-220 106t-220 -106t-81 -286zM1102 635h528q2 129 -64.5 212t-183.5 83 q-66 0 -115.5 -25.5t-83.5 -66.5t-54.5 -94.5t-26.5 -108.5z" />
<glyph unicode="&#x154;" horiz-adv-x="1288" d="M176 0v1399q84 20 187.5 27.5t189.5 7.5q299 0 455.5 -113t156.5 -336q0 -141 -74.5 -241.5t-220.5 -149.5q33 -41 83.5 -107.5t103.5 -147.5t105 -169t89 -170h-217q-41 78 -89 158t-97 152.5t-97.5 136t-86.5 110.5q-27 -2 -55 -2h-56h-178v-555h-199zM375 719h141 q102 0 184 10t138.5 39t87 81t30.5 138q0 80 -30.5 133.5t-82.5 84t-123 43t-151 12.5q-127 0 -194 -7v-534zM465 1593l262 315l123 -121l-289 -280z" />
<glyph unicode="&#x155;" horiz-adv-x="790" d="M164 0v1020q68 25 168 46t225 21q25 0 56.5 -3t62.5 -8t56.5 -10t37.5 -9l-33 -166q-23 8 -75 19.5t-134 11.5q-53 0 -105 -11.5t-69 -15.5v-895h-190zM334 1274l262 315l123 -121l-289 -280z" />
<glyph unicode="&#x156;" horiz-adv-x="1288" d="M176 0v1399q84 20 187.5 27.5t189.5 7.5q299 0 455.5 -113t156.5 -336q0 -141 -74.5 -241.5t-220.5 -149.5q33 -41 83.5 -107.5t103.5 -147.5t105 -169t89 -170h-217q-41 78 -89 158t-97 152.5t-97.5 136t-86.5 110.5q-27 -2 -55 -2h-56h-178v-555h-199zM375 719h141 q102 0 184 10t138.5 39t87 81t30.5 138q0 80 -30.5 133.5t-82.5 84t-123 43t-151 12.5q-127 0 -194 -7v-534zM453 -262q31 0 56.5 4t42 17.5t25.5 40t9 71.5v27h182q2 -10 2 -24v-19q0 -66 -19.5 -111t-52 -73.5t-76.5 -42t-93 -13.5q-27 0 -48.5 2t-27.5 6v115z" />
<glyph unicode="&#x157;" horiz-adv-x="790" d="M164 0v1020q68 25 168 46t225 21q25 0 56.5 -3t62.5 -8t56.5 -10t37.5 -9l-33 -166q-23 8 -75 19.5t-134 11.5q-53 0 -105 -11.5t-69 -15.5v-895h-190zM37 -262q31 0 56.5 4t42 17.5t25.5 40t9 71.5v27h182q2 -10 2 -24v-19q0 -66 -19.5 -111t-52 -73.5t-76.5 -42 t-93 -13.5q-27 0 -48.5 2t-27.5 6v115z" />
<glyph unicode="&#x158;" horiz-adv-x="1288" d="M176 0v1399q84 20 187.5 27.5t189.5 7.5q299 0 455.5 -113t156.5 -336q0 -141 -74.5 -241.5t-220.5 -149.5q33 -41 83.5 -107.5t103.5 -147.5t105 -169t89 -170h-217q-41 78 -89 158t-97 152.5t-97.5 136t-86.5 110.5q-27 -2 -55 -2h-56h-178v-555h-199zM375 719h141 q102 0 184 10t138.5 39t87 81t30.5 138q0 80 -30.5 133.5t-82.5 84t-123 43t-151 12.5q-127 0 -194 -7v-534zM323 1812l80 90l199 -180l199 180l80 -90l-279 -293z" />
<glyph unicode="&#x159;" horiz-adv-x="790" d="M164 0v1020q68 25 168 46t225 21q25 0 56.5 -3t62.5 -8t56.5 -10t37.5 -9l-33 -166q-23 8 -75 19.5t-134 11.5q-53 0 -105 -11.5t-69 -15.5v-895h-190zM190 1493l80 90l199 -180l199 180l80 -90l-279 -293z" />
<glyph unicode="&#x15a;" horiz-adv-x="1089" d="M68 70l59 163q47 -27 143.5 -59.5t235.5 -32.5q311 0 311 213q0 66 -27.5 112t-74.5 80t-107.5 58.5t-128.5 48.5q-78 27 -147.5 61t-120.5 80t-81 109.5t-30 153.5q0 186 127 290.5t351 104.5q129 0 234.5 -27.5t154.5 -60.5l-64 -162q-43 27 -128 52.5t-197 25.5 q-57 0 -106.5 -12.5t-86.5 -37t-58.5 -62.5t-21.5 -89q0 -57 22.5 -96t63.5 -68.5t95.5 -54t119.5 -49.5q92 -37 169 -74t133.5 -88t87 -121.5t30.5 -171.5q0 -186 -136 -286.5t-384 -100.5q-84 0 -154.5 11.5t-126 27t-95 33t-62.5 29.5zM428 1593l262 315l123 -121 l-289 -280z" />
<glyph unicode="&#x15b;" horiz-adv-x="913" d="M82 35l35 164q33 -12 104.5 -37t190.5 -25q117 0 173 31t56 98q0 70 -55.5 111t-182.5 92q-61 25 -117.5 50.5t-97.5 60t-65.5 84t-24.5 120.5q0 141 104.5 224.5t284.5 83.5q45 0 90.5 -5.5t84 -12.5t68.5 -15t46 -15l-35 -163q-31 16 -96 33.5t-158 17.5 q-80 0 -139 -32t-59 -99q0 -35 13 -61.5t41 -48t69 -40t98 -39.5q76 -29 135.5 -56.5t101 -64t64.5 -89t23 -128.5q0 -147 -110 -223t-312 -76q-141 0 -221 24t-109 36zM328 1274l262 315l123 -121l-289 -280z" />
<glyph unicode="&#x15c;" horiz-adv-x="1089" d="M68 70l59 163q47 -27 143.5 -59.5t235.5 -32.5q311 0 311 213q0 66 -27.5 112t-74.5 80t-107.5 58.5t-128.5 48.5q-78 27 -147.5 61t-120.5 80t-81 109.5t-30 153.5q0 186 127 290.5t351 104.5q129 0 234.5 -27.5t154.5 -60.5l-64 -162q-43 27 -128 52.5t-197 25.5 q-57 0 -106.5 -12.5t-86.5 -37t-58.5 -62.5t-21.5 -89q0 -57 22.5 -96t63.5 -68.5t95.5 -54t119.5 -49.5q92 -37 169 -74t133.5 -88t87 -121.5t30.5 -171.5q0 -186 -136 -286.5t-384 -100.5q-84 0 -154.5 11.5t-126 27t-95 33t-62.5 29.5zM286 1601l279 293l279 -293 l-80 -90l-199 180l-199 -180z" />
<glyph unicode="&#x15d;" horiz-adv-x="913" d="M82 35l35 164q33 -12 104.5 -37t190.5 -25q117 0 173 31t56 98q0 70 -55.5 111t-182.5 92q-61 25 -117.5 50.5t-97.5 60t-65.5 84t-24.5 120.5q0 141 104.5 224.5t284.5 83.5q45 0 90.5 -5.5t84 -12.5t68.5 -15t46 -15l-35 -163q-31 16 -96 33.5t-158 17.5 q-80 0 -139 -32t-59 -99q0 -35 13 -61.5t41 -48t69 -40t98 -39.5q76 -29 135.5 -56.5t101 -64t64.5 -89t23 -128.5q0 -147 -110 -223t-312 -76q-141 0 -221 24t-109 36zM186 1282l279 293l279 -293l-80 -90l-199 180l-199 -180z" />
<glyph unicode="&#x15e;" horiz-adv-x="1089" d="M68 70l59 163q47 -27 143.5 -59.5t235.5 -32.5q311 0 311 213q0 66 -27.5 112t-74.5 80t-107.5 58.5t-128.5 48.5q-78 27 -147.5 61t-120.5 80t-81 109.5t-30 153.5q0 186 127 290.5t351 104.5q129 0 234.5 -27.5t154.5 -60.5l-64 -162q-43 27 -128 52.5t-197 25.5 q-57 0 -106.5 -12.5t-86.5 -37t-58.5 -62.5t-21.5 -89q0 -57 22.5 -96t63.5 -68.5t95.5 -54t119.5 -49.5q92 -37 169 -74t133.5 -88t87 -121.5t30.5 -171.5q0 -166 -109.5 -264t-314.5 -119l-22 -49q59 -29 85.5 -62.5t26.5 -99.5q0 -23 -10 -49t-34.5 -48.5t-65.5 -37 t-101 -14.5q-53 0 -97 8t-71 19l23 116q25 -8 52.5 -14t62.5 -6q74 0 73 47q0 23 -22.5 38t-63.5 32l-14 6q8 23 20.5 52.5t26.5 57.5q-78 2 -142.5 13.5t-115.5 27t-88 32t-57 28.5z" />
<glyph unicode="&#x15f;" horiz-adv-x="913" d="M82 35l35 164q33 -12 104.5 -37t190.5 -25q117 0 173 31t56 98q0 70 -55.5 111t-182.5 92q-61 25 -117.5 50.5t-97.5 60t-65.5 84t-24.5 120.5q0 141 104.5 224.5t284.5 83.5q45 0 90.5 -5.5t84 -12.5t68.5 -15t46 -15l-35 -163q-31 16 -96 33.5t-158 17.5 q-80 0 -139 -32t-59 -99q0 -37 13 -62.5t41 -46t69 -40t98 -40.5q74 -29 133 -56.5t102 -64t66 -89t23 -128.5q0 -127 -82 -200.5t-236 -91.5l-15 -31q-7 -14 -12 -27q59 -29 86 -62.5t27 -99.5q0 -23 -10 -49t-35 -48.5t-65.5 -37t-100.5 -14.5q-53 0 -97 8t-71 19l23 116 q25 -8 52.5 -14t61.5 -6q74 0 74 47q0 23 -22.5 38t-63.5 32l-14 6q8 25 21.5 56.5t27.5 59.5q-129 4 -201.5 26t-99.5 34z" />
<glyph unicode="&#x160;" horiz-adv-x="1089" d="M68 70l59 163q47 -27 143.5 -59.5t235.5 -32.5q311 0 311 213q0 66 -27.5 112t-74.5 80t-107.5 58.5t-128.5 48.5q-78 27 -147.5 61t-120.5 80t-81 109.5t-30 153.5q0 186 127 290.5t351 104.5q129 0 234.5 -27.5t154.5 -60.5l-64 -162q-43 27 -128 52.5t-197 25.5 q-57 0 -106.5 -12.5t-86.5 -37t-58.5 -62.5t-21.5 -89q0 -57 22.5 -96t63.5 -68.5t95.5 -54t119.5 -49.5q92 -37 169 -74t133.5 -88t87 -121.5t30.5 -171.5q0 -186 -136 -286.5t-384 -100.5q-84 0 -154.5 11.5t-126 27t-95 33t-62.5 29.5zM286 1812l80 90l199 -180l199 180 l80 -90l-279 -293z" />
<glyph unicode="&#x161;" horiz-adv-x="913" d="M82 35l35 164q33 -12 104.5 -37t190.5 -25q117 0 173 31t56 98q0 70 -55.5 111t-182.5 92q-61 25 -117.5 50.5t-97.5 60t-65.5 84t-24.5 120.5q0 141 104.5 224.5t284.5 83.5q45 0 90.5 -5.5t84 -12.5t68.5 -15t46 -15l-35 -163q-31 16 -96 33.5t-158 17.5 q-80 0 -139 -32t-59 -99q0 -35 13 -61.5t41 -48t69 -40t98 -39.5q76 -29 135.5 -56.5t101 -64t64.5 -89t23 -128.5q0 -147 -110 -223t-312 -76q-141 0 -221 24t-109 36zM178 1493l80 90l199 -180l199 180l80 -90l-279 -293z" />
<glyph unicode="&#x162;" horiz-adv-x="1157" d="M33 1247v172h1091v-172h-446v-1247h-39q-10 -20 -20.5 -39.5t-16.5 -36.5q59 -29 86 -62.5t27 -99.5q0 -23 -10.5 -49t-35 -48.5t-65.5 -37t-100 -14.5q-53 0 -97.5 8t-70.5 19l22 116q25 -8 52.5 -14t62.5 -6q74 0 74 47q0 23 -22.5 38t-63.5 32l-15 6q8 29 27 69.5 t35 71.5h-29v1247h-446z" />
<glyph unicode="&#x163;" horiz-adv-x="823" d="M152 412v950l190 33v-330h403v-160h-403v-491q0 -80 12.5 -132.5t37 -82t61 -42t86.5 -12.5q86 0 138 19.5t73 28.5l36 -158q-27 -12 -85 -31.5t-136 -23.5q-8 -16 -15 -29.5t-11 -26.5q59 -29 85.5 -62.5t26.5 -99.5q0 -23 -10 -49t-34.5 -48.5t-65.5 -37t-101 -14.5 q-53 0 -97 8t-71 19l23 116q25 -8 52.5 -14t62.5 -6q74 0 73 47q0 23 -22.5 38t-63.5 32l-14 6q8 27 21.5 60.5t29.5 64.5q-82 10 -136 42.5t-87 86t-46 128.5t-13 171z" />
<glyph unicode="&#x164;" horiz-adv-x="1157" d="M33 1247v172h1091v-172h-446v-1247h-199v1247h-446zM299 1812l80 90l199 -180l199 180l80 -90l-279 -293z" />
<glyph unicode="&#x165;" horiz-adv-x="823" d="M152 412v950l190 33v-330h403v-160h-403v-491q0 -80 12.5 -132.5t37 -82t61 -42t86.5 -12.5q86 0 138 19.5t73 28.5l36 -158q-29 -14 -100.5 -36t-163.5 -22q-109 0 -179.5 28t-113.5 83t-60 136.5t-17 187.5zM486 1192v397h182l-55 -397h-127z" />
<glyph unicode="&#x166;" horiz-adv-x="1157" d="M33 1247v172h1091v-172h-446v-442h266v-154h-266v-651h-199v651h-266v154h266v442h-446z" />
<glyph unicode="&#x167;" horiz-adv-x="823" d="M152 412v950l190 33v-330h403v-160h-403v-278h403v-144h-403v-69q0 -80 12.5 -132.5t37 -82t61 -42t86.5 -12.5q86 0 138 19.5t73 28.5l36 -158q-29 -14 -100.5 -36t-163.5 -22q-109 0 -179.5 28t-113.5 83t-60 136.5t-17 187.5z" />
<glyph unicode="&#x168;" horiz-adv-x="1409" d="M166 528v891h199v-868q0 -213 94 -309.5t246 -96.5q76 0 138 24t107 73t69.5 125.5t24.5 183.5v868h199v-891q0 -119 -31.5 -221t-98 -177t-168 -118t-240.5 -43t-242 43t-168.5 118t-97 177t-31.5 221zM369 1628q8 25 26.5 57.5t45 60t62.5 47t79 19.5q41 0 77 -14.5 t69 -30.5q35 -16 59 -24.5t47 -8.5q35 0 64.5 29t46.5 61l98 -49q-10 -25 -27.5 -57.5t-44 -60t-62.5 -47t-79 -19.5q-41 0 -77 14t-69 31q-35 16 -59 24.5t-47 8.5q-35 0 -64.5 -29t-46.5 -61z" />
<glyph unicode="&#x169;" d="M152 467v598h190v-557q0 -195 61.5 -279t206.5 -84q31 0 64 2.5t61.5 5.5t52 6t33.5 7v899h191v-1034q-66 -16 -173.5 -35t-248.5 -19q-123 0 -207 36t-135 101.5t-73.5 154.5t-22.5 198zM250 1309q8 25 26.5 57.5t45 60t62.5 47t79 19.5q41 0 77 -14.5t69 -30.5 q35 -16 59 -24.5t47 -8.5q35 0 64.5 29t46.5 61l98 -49q-10 -25 -27.5 -57.5t-44 -60t-62.5 -47t-79 -19.5q-41 0 -77 14t-69 31q-35 16 -59 24.5t-47 8.5q-35 0 -64.5 -29t-46.5 -61z" />
<glyph unicode="&#x16a;" horiz-adv-x="1409" d="M166 528v891h199v-868q0 -213 94 -309.5t246 -96.5q76 0 138 24t107 73t69.5 125.5t24.5 183.5v868h199v-891q0 -119 -31.5 -221t-98 -177t-168 -118t-240.5 -43t-242 43t-168.5 118t-97 177t-31.5 221zM413 1628v147h582v-147h-582z" />
<glyph unicode="&#x16b;" d="M152 467v598h190v-557q0 -195 61.5 -279t206.5 -84q31 0 64 2.5t61.5 5.5t52 6t33.5 7v899h191v-1034q-66 -16 -173.5 -35t-248.5 -19q-123 0 -207 36t-135 101.5t-73.5 154.5t-22.5 198zM291 1309v147h582v-147h-582z" />
<glyph unicode="&#x16c;" horiz-adv-x="1409" d="M166 528v891h199v-868q0 -213 94 -309.5t246 -96.5q76 0 138 24t107 73t69.5 125.5t24.5 183.5v868h199v-891q0 -119 -31.5 -221t-98 -177t-168 -118t-240.5 -43t-242 43t-168.5 118t-97 177t-31.5 221zM432 1853h123q2 -23 9 -49.5t23.5 -48t45 -36t71.5 -14.5t72 14.5 t45 36t23.5 48t9.5 49.5h123q2 -68 -18.5 -121t-58.5 -89t-88 -55.5t-108 -19.5q-57 0 -107.5 19.5t-88 55.5t-58 89t-18.5 121z" />
<glyph unicode="&#x16d;" d="M152 467v598h190v-557q0 -195 61.5 -279t206.5 -84q31 0 64 2.5t61.5 5.5t52 6t33.5 7v899h191v-1034q-66 -16 -173.5 -35t-248.5 -19q-123 0 -207 36t-135 101.5t-73.5 154.5t-22.5 198zM309 1534h123q2 -23 9 -49.5t23.5 -48t45 -36t71.5 -14.5t72 14.5t45 36t23.5 48 t9.5 49.5h123q2 -68 -18.5 -121t-58.5 -89t-88 -55.5t-108 -19.5q-57 0 -107.5 19.5t-88 55.5t-58 89t-18.5 121z" />
<glyph unicode="&#x16e;" horiz-adv-x="1409" d="M166 528v891h199v-868q0 -213 94 -309.5t246 -96.5q76 0 138 24t107 73t69.5 125.5t24.5 183.5v868h199v-891q0 -119 -31.5 -221t-98 -177t-168 -118t-240.5 -43t-242 43t-168.5 118t-97 177t-31.5 221zM493 1705q0 49 17.5 87t46 66t66.5 42t81 14t81 -14t66.5 -42 t46 -65.5t17.5 -87.5q0 -49 -17.5 -86.5t-46 -65.5t-66.5 -42t-81 -14t-81 14t-66.5 42t-46 65.5t-17.5 86.5zM595 1705q0 -53 32 -82.5t77 -29.5t77 29.5t32 82.5t-32 83t-77 30t-77 -30t-32 -83z" />
<glyph unicode="&#x16f;" d="M152 467v598h190v-557q0 -195 61.5 -279t206.5 -84q31 0 64 2.5t61.5 5.5t52 6t33.5 7v899h191v-1034q-66 -16 -173.5 -35t-248.5 -19q-123 0 -207 36t-135 101.5t-73.5 154.5t-22.5 198zM371 1386q0 49 17.5 87t46 66t66.5 42t81 14t81 -14t66.5 -42t46 -65.5 t17.5 -87.5q0 -49 -17.5 -86.5t-46 -65.5t-66.5 -42t-81 -14t-81 14t-66.5 42t-46 65.5t-17.5 86.5zM473 1386q0 -53 32 -82.5t77 -29.5t77 29.5t32 82.5t-32 83t-77 30t-77 -30t-32 -83z" />
<glyph unicode="&#x170;" horiz-adv-x="1409" d="M166 528v891h199v-868q0 -213 94 -309.5t246 -96.5q76 0 138 24t107 73t69.5 125.5t24.5 183.5v868h199v-891q0 -119 -31.5 -221t-98 -177t-168 -118t-240.5 -43t-242 43t-168.5 118t-97 177t-31.5 221zM447 1581l235 327l115 -114l-252 -287zM785 1581l235 327l115 -114 l-252 -287z" />
<glyph unicode="&#x171;" d="M152 467v598h190v-557q0 -195 61.5 -279t206.5 -84q31 0 64 2.5t61.5 5.5t52 6t33.5 7v899h191v-1034q-66 -16 -173.5 -35t-248.5 -19q-123 0 -207 36t-135 101.5t-73.5 154.5t-22.5 198zM324 1262l235 327l115 -114l-252 -287zM662 1262l235 327l115 -114l-252 -287z " />
<glyph unicode="&#x172;" horiz-adv-x="1409" d="M166 528v891h199v-868q0 -213 94 -309.5t246 -96.5q76 0 138 24t107 73t69.5 125.5t24.5 183.5v868h199v-891q0 -166 -60.5 -295t-189.5 -202q-47 -29 -85 -53.5t-68 -57.5q-29 -33 -44.5 -57.5t-15.5 -52.5q0 -59 82 -60q14 0 38 3t46 11l15 -124q-23 -10 -59 -16.5 t-77 -6.5q-115 0 -170 42t-55 114q0 57 38 109t77 87h-10q-139 0 -242 43t-168.5 118t-97 177t-31.5 221z" />
<glyph unicode="&#x173;" d="M152 467v598h190v-557q0 -195 61.5 -279t206.5 -84q31 0 64 2.5t61.5 5.5t52 6t33.5 7v899h191v-1040q-25 -18 -54.5 -45t-60.5 -60q-29 -33 -47.5 -57.5t-18.5 -52.5q0 -59 82 -60q14 0 38 3t46 11l15 -124q-23 -10 -58.5 -16.5t-76.5 -6.5q-115 0 -170.5 42t-55.5 114 q0 47 29 91t63 81q10 12 25.5 24.5t26.5 22.5q-47 -6 -97.5 -10.5t-107.5 -4.5q-123 0 -207 36t-135 101.5t-73.5 154.5t-22.5 198z" />
<glyph unicode="&#x174;" horiz-adv-x="1902" d="M57 1419h209q29 -160 59.5 -319.5t63.5 -310t65.5 -287.5t67.5 -254q82 215 174 472t172 531h172q80 -274 174.5 -531t176.5 -472q33 115 65.5 252t64 287.5t62.5 311.5t59 320h203q-74 -410 -156.5 -758t-189.5 -661h-199q-90 221 -176 454.5t-172 508.5 q-86 -274 -174 -508t-176 -455h-199q-109 313 -191.5 661t-154.5 758zM671 1601l279 293l279 -293l-80 -90l-199 180l-199 -180z" />
<glyph unicode="&#x175;" horiz-adv-x="1591" d="M37 1065h205q20 -96 48.5 -209t60.5 -225.5t67 -217t65 -182.5q35 96 69 204t64.5 217.5t58 215t48.5 197.5h158q18 -92 44.5 -197.5t57.5 -215t64.5 -217t68.5 -204.5q31 78 64.5 182.5t66.5 217t61.5 225.5t49.5 209h196q-80 -313 -170 -583.5t-184 -481.5h-166 q-57 147 -121.5 336.5t-117.5 394.5q-53 -205 -117 -394.5t-121 -336.5h-166q-94 211 -184 481.5t-170 583.5zM516 1282l279 293l279 -293l-80 -90l-199 180l-199 -180z" />
<glyph unicode="&#x176;" horiz-adv-x="1224" d="M12 1419h234q78 -168 174 -341t198 -333q100 160 196.5 333t176.5 341h221q-111 -205 -235.5 -416.5t-263.5 -429.5v-573h-199v569q-141 219 -266 432t-236 418zM333 1601l279 293l279 -293l-80 -90l-199 180l-199 -180z" />
<glyph unicode="&#x177;" horiz-adv-x="1017" d="M4 -352l35 153q23 -10 58.5 -19t70.5 -9q113 0 176.5 50t114.5 163q-129 246 -241 521t-185 558h205q23 -92 54.5 -198.5t70 -219t84 -225.5t94.5 -217q78 215 135 426t108 434h197q-74 -301 -164 -578.5t-194 -519.5q-41 -92 -85 -158.5t-97.5 -109.5t-120 -63.5 t-150.5 -20.5q-23 0 -47.5 3t-48 8t-43 11.5t-27.5 10.5zM256 1282l279 293l279 -293l-80 -90l-199 180l-199 -180z" />
<glyph unicode="&#x178;" horiz-adv-x="1224" d="M12 1419h234q78 -168 174 -341t198 -333q100 160 196.5 333t176.5 341h221q-111 -205 -235.5 -416.5t-263.5 -429.5v-573h-199v569q-141 219 -266 432t-236 418zM299 1701q0 53 35.5 87t82.5 34t83 -33.5t36 -87.5q0 -53 -35.5 -86.5t-83.5 -33.5q-47 0 -82.5 33.5 t-35.5 86.5zM688 1701q0 53 35.5 87t83.5 34q47 0 82.5 -33.5t35.5 -87.5q0 -53 -35.5 -86.5t-82.5 -33.5t-83 33.5t-36 86.5z" />
<glyph unicode="&#x179;" horiz-adv-x="1173" d="M68 0v133q43 82 101 180.5t124.5 200.5t138.5 206.5t142.5 201t137 180.5t122.5 147h-730v170h973v-157q-47 -53 -109.5 -128t-132 -166t-143.5 -192.5t-144.5 -205t-134 -206t-114.5 -194.5h799v-170h-1030zM461 1593l262 315l123 -121l-289 -280z" />
<glyph unicode="&#x17a;" horiz-adv-x="964" d="M74 0v127q49 90 120.5 198.5t150.5 216t153.5 203t130.5 160.5h-527v160h768v-143q-43 -47 -113.5 -133.5t-151.5 -190.5t-162 -219t-142 -219h586v-160h-813zM336 1274l262 315l123 -121l-289 -280z" />
<glyph unicode="&#x17b;" horiz-adv-x="1173" d="M68 0v133q43 82 101 180.5t124.5 200.5t138.5 206.5t142.5 201t137 180.5t122.5 147h-730v170h973v-157q-47 -53 -109.5 -128t-132 -166t-143.5 -192.5t-144.5 -205t-134 -206t-114.5 -194.5h799v-170h-1030zM475 1701q0 57 36 91t87 34t87 -33.5t36 -91.5q0 -57 -36 -91 t-87 -34t-87 34t-36 91z" />
<glyph unicode="&#x17c;" horiz-adv-x="964" d="M74 0v127q49 90 120.5 198.5t150.5 216t153.5 203t130.5 160.5h-527v160h768v-143q-43 -47 -113.5 -133.5t-151.5 -190.5t-162 -219t-142 -219h586v-160h-813zM350 1382q0 57 36 91t87 34t87 -33.5t36 -91.5q0 -57 -36 -91t-87 -34t-87 34t-36 91z" />
<glyph unicode="&#x17d;" horiz-adv-x="1173" d="M68 0v133q43 82 101 180.5t124.5 200.5t138.5 206.5t142.5 201t137 180.5t122.5 147h-730v170h973v-157q-47 -53 -109.5 -128t-132 -166t-143.5 -192.5t-144.5 -205t-134 -206t-114.5 -194.5h799v-170h-1030zM319 1812l80 90l199 -180l199 180l80 -90l-279 -293z" />
<glyph unicode="&#x17e;" horiz-adv-x="964" d="M74 0v127q49 90 120.5 198.5t150.5 216t153.5 203t130.5 160.5h-527v160h768v-143q-43 -47 -113.5 -133.5t-151.5 -190.5t-162 -219t-142 -219h586v-160h-813zM194 1493l80 90l199 -180l199 180l80 -90l-279 -293z" />
<glyph unicode="&#x17f;" horiz-adv-x="559" d="M164 0v1161q0 205 100.5 316.5t315.5 111.5q84 0 144 -12t85 -23l-35 -163q-25 12 -70 23t-110 11q-133 0 -186.5 -72.5t-53.5 -195.5v-1157h-190z" />
<glyph unicode="&#x180;" horiz-adv-x="1206" d="M12 1257v142h152v157l190 33v-190h363v-142h-363v-247q35 23 105.5 47t163.5 24q115 0 203.5 -40t150 -112.5t93.5 -174t32 -224.5q0 -129 -38 -231t-107.5 -175t-168 -111t-221.5 -38q-133 0 -235.5 18.5t-167.5 37.5v1226h-152zM354 166q29 -8 81 -15.5t130 -7.5 q154 0 246 100.5t92 286.5q0 82 -16.5 153t-53 122t-95 79.5t-140.5 28.5q-78 0 -143.5 -26.5t-100.5 -55.5v-665z" />
<glyph unicode="&#x181;" horiz-adv-x="1523" d="M31 1108q0 121 59.5 186.5t160.5 96t234 37t281 6.5q123 0 230.5 -18.5t187.5 -62.5t126 -116t46 -176q0 -117 -58.5 -191.5t-156.5 -109.5q131 -37 204.5 -117t73.5 -227q0 -213 -156.5 -320.5t-496.5 -107.5q-43 0 -93 2t-100.5 6t-99.5 10t-90 17v1224 q-186 -10 -186 -157q0 -16 1 -34t3 -30l-158 -18q-4 14 -8 42.5t-4 57.5zM580 160q23 -2 53 -4q27 -2 62 -2h83q88 0 167 11t138.5 39.5t95 80t35.5 129.5q0 70 -26.5 118t-76.5 77.5t-119.5 42t-155.5 12.5h-256v-504zM580 819h200q84 0 152.5 11.5t118 37t76 69.5 t26.5 110q0 61 -29.5 103t-81 67.5t-120 38t-144.5 12.5q-47 0 -83 -1t-62 -1h-53v-447z" />
<glyph unicode="&#x182;" horiz-adv-x="1267" d="M176 20v1399h877v-170h-678v-360h176q150 0 267.5 -24.5t199.5 -79t125 -139.5t43 -208q0 -225 -164 -338.5t-463 -113.5q-43 0 -93 2t-100.5 6t-99.5 10t-90 16zM375 166q23 -2 53 -4q27 -2 64 -2h83q80 0 153 12t128 44t88 85t33 135q0 86 -29.5 141.5t-85 88 t-136.5 46t-183 13.5h-168v-559z" />
<glyph unicode="&#x183;" horiz-adv-x="1206" d="M164 31v1548h821v-160h-631v-409q35 23 105.5 47t163.5 24q115 0 203.5 -40t150 -112.5t93.5 -174t32 -224.5q0 -129 -38 -231t-107.5 -175t-168 -111t-221.5 -38q-133 0 -235 19t-168 37zM354 166q29 -8 81 -15.5t130 -7.5q154 0 246 100.5t92 286.5q0 82 -16.5 153 t-53 122t-95 79.5t-140.5 28.5q-78 0 -143.5 -26.5t-100.5 -55.5v-665z" />
<glyph unicode="&#x184;" horiz-adv-x="1206" d="M20 1450q74 43 159 80t175 59v-571q35 23 105.5 47.5t163.5 24.5q115 0 203.5 -41t150 -115t93.5 -176.5t32 -225.5q0 -129 -38 -232t-107.5 -175t-168 -111t-221.5 -39q-133 0 -235.5 18.5t-167.5 37.5v1263zM354 166q29 -8 81 -15.5t130 -7.5q154 0 246 101.5t92 287.5 q0 82 -16.5 154t-53 124t-95 82t-140.5 30q-78 0 -143.5 -27t-100.5 -55v-674z" />
<glyph unicode="&#x185;" horiz-adv-x="1269" d="M41 1292q74 43 161 80t181 62v-531q41 4 83 5t83 1q645 0 645 -465q0 -229 -167 -343.5t-466 -114.5q-86 0 -189.5 7t-187.5 27v1117zM383 166q23 -2 51 -4q25 -2 61 -2h83q80 0 153.5 12t130 45t90 87t33.5 140t-32.5 143.5t-91 90.5t-139.5 46t-179 13h-79 q-40 0 -81 -4v-567z" />
<glyph unicode="&#x186;" horiz-adv-x="1269" d="M51 59l51 164q45 -23 134.5 -51.5t224.5 -28.5q119 0 208 41t149.5 116t91 179.5t30.5 231.5t-29.5 231.5t-89 179t-149.5 115.5t-211 41q-135 0 -222 -27.5t-133 -50.5l-51 158q14 10 50 26.5t91.5 32t128 25.5t158.5 10q150 0 273 -50t211 -145.5t136 -232.5t48 -313 q0 -174 -48 -312.5t-136 -233.5t-210 -145.5t-272 -50.5q-86 0 -159.5 10.5t-130 24.5t-93.5 29.5t-51 25.5z" />
<glyph unicode="&#x187;" horiz-adv-x="1357" d="M119 711q0 178 54 316t146.5 232.5t215 143.5t262.5 49q84 -4 141 -15.5t106 -27.5q33 106 97.5 153.5t193.5 47.5q29 0 68 -7.5t61 -17.5l-32 -145q-16 6 -44 10t-45 4q-57 0 -89.5 -22.5t-51 -59.5t-28 -83t-21.5 -91q-18 8 -53 21.5t-80 27t-97.5 22.5t-105.5 9 q-113 0 -203 -39t-153.5 -112.5t-97 -179t-33.5 -236.5q0 -127 29.5 -231.5t89 -179.5t148.5 -116t208 -41q137 0 227 29t135 51l52 -164q-14 -10 -51.5 -25.5t-92.5 -29.5t-129 -24.5t-160 -10.5q-150 0 -272.5 49.5t-210.5 143.5t-136 232.5t-48 316.5z" />
<glyph unicode="&#x188;" horiz-adv-x="1040" d="M104 530q0 123 36 225.5t101.5 177.5t161 117t211.5 42q61 0 123 -13q37 115 100.5 162t184.5 47q29 0 65.5 -7t59.5 -17l-33 -138q-16 6 -41.5 10.5t-42.5 4.5q-53 0 -84 -22.5t-48 -59.5t-25.5 -83t-16.5 -95q-12 4 -35.5 11t-54.5 14t-65.5 12.5t-67.5 5.5 q-160 0 -245 -100.5t-85 -293.5q0 -86 19.5 -157.5t61.5 -122.5t107.5 -79t159.5 -28q76 0 137.5 14.5t96.5 30.5l26 -159q-16 -10 -46.5 -19.5t-69.5 -16.5t-83 -12.5t-85 -5.5q-129 0 -226.5 41t-164 115t-99.5 175t-33 224z" />
<glyph unicode="&#x189;" horiz-adv-x="1486" d="M39 664v153h164v582q84 20 187.5 27.5t189.5 7.5q174 0 319 -44t249.5 -133.5t162 -225.5t57.5 -320t-57.5 -320.5t-162 -225.5t-249.5 -133t-319 -44q-86 0 -189.5 7t-187.5 28v641h-164zM401 168q18 -2 64.5 -4t130.5 -2q283 0 422 144.5t139 404.5t-139 404.5 t-422 144.5q-84 0 -130 -2.5t-65 -4.5v-436h267v-153h-267v-496z" />
<glyph unicode="&#x18a;" horiz-adv-x="1667" d="M29 1108q0 121 60.5 186.5t160.5 96t232 37t278 6.5q174 0 319.5 -44t250 -133.5t161.5 -225.5t57 -320t-57 -320.5t-161.5 -225.5t-250 -133t-319.5 -44q-86 0 -189.5 7t-187.5 28v1224q-188 -10 -188 -157q0 -16 1 -34t3 -30l-158 -18q-4 14 -8 42.5t-4 57.5zM582 168 q23 -2 51 -4q25 -2 60 -2h83q283 0 422 144.5t139 404.5t-139 404.5t-422 144.5q-92 0 -142 -1.5t-52 -1.5v-1089z" />
<glyph unicode="&#x18b;" horiz-adv-x="1280" d="M94 438q0 123 43 208t125 139.5t200 79t267 24.5h176v364h-678v166h877v-1399q-41 -10 -90 -16t-100.5 -10t-100.5 -6t-92 -2q-299 0 -463 113.5t-164 338.5zM303 436q0 -82 33 -135t88 -85t128 -44t153 -12h83q37 0 64 2q31 2 53 4v559h-168q-102 0 -183 -13.5 t-136.5 -46t-85 -88t-29.5 -141.5z" />
<glyph unicode="&#x18c;" horiz-adv-x="1206" d="M104 530q0 123 32 224.5t93.5 174t150.5 112.5t204 40q92 0 162.5 -24.5t105.5 -46.5v409h-631v160h821v-1548q-66 -18 -168 -37t-235 -19q-123 0 -221.5 38t-168 111t-107.5 175t-38 231zM303 530q0 -186 92 -286.5t246 -100.5q78 0 130 7.5t81 15.5v665 q-35 29 -100.5 55.5t-143.5 26.5q-82 0 -140 -28.5t-95 -79.5t-53.5 -122t-16.5 -153z" />
<glyph unicode="&#x18d;" horiz-adv-x="1191" d="M104 582q0 86 24 177t81 164.5t154.5 121t244.5 47.5q121 0 211 -43t149.5 -113t89 -159t29.5 -183q0 -72 -24.5 -142.5t-68.5 -135t-105.5 -118t-134.5 -85.5q68 -41 112.5 -92.5t44.5 -129.5q0 -74 -31.5 -125t-86 -83.5t-124 -47t-143.5 -14.5q-51 0 -102 5t-96 13.5 t-79 17.5t-50 15l34 156q31 -14 107 -34.5t182 -20.5q98 0 151.5 21.5t53.5 80.5q0 43 -25.5 71.5t-68.5 53.5t-99.5 50.5t-117.5 60.5q-141 78 -226.5 188.5t-85.5 282.5zM299 588q0 -59 12.5 -104.5t34 -82t51 -65.5t66.5 -55q31 -23 65.5 -43.5t69.5 -38.5 q66 27 121 68.5t95 94t61.5 111.5t21.5 121q0 68 -18.5 128t-54.5 106t-90 73t-126 27q-94 0 -154.5 -32t-94 -82t-47 -110.5t-13.5 -115.5z" />
<glyph unicode="&#x18e;" horiz-adv-x="1169" d="M76 0v170h719v492h-594v165h594v422h-668v170h866v-1419h-917z" />
<glyph unicode="&#x18f;" horiz-adv-x="1443" d="M115 680q0 16 2 40.5t4 37.5h997q-18 264 -140 392t-372 128q-66 0 -120 -9t-97 -22.5t-74.5 -28t-52.5 -24.5l-49 164q16 12 53 27.5t90.5 31t123 25.5t149.5 10q178 0 309 -55.5t217 -153.5t128 -233.5t42 -292.5q0 -188 -49 -327.5t-135 -234t-202 -140.5t-251 -46 q-268 0 -420.5 178.5t-152.5 532.5zM324 596q0 -100 24.5 -184t70.5 -144.5t114.5 -94.5t158.5 -34q104 0 181 41t128.5 105.5t78 146.5t32.5 164h-788z" />
<glyph unicode="&#x190;" horiz-adv-x="1171" d="M104 393q0 82 26 143.5t68 107.5t98 76t118 46q-121 39 -183.5 125t-62.5 184q0 96 37 167t102.5 117t155.5 68.5t196 22.5q63 0 126 -7t115 -19.5t94 -28t67 -31.5l-64 -162q-43 27 -133 52.5t-202 25.5q-131 0 -210 -58.5t-79 -150.5q0 -72 36.5 -119t94 -74.5t127 -38 t137.5 -10.5h106v-161h-126q-92 0 -171 -11.5t-137.5 -42t-92.5 -83t-34 -134.5q0 -139 97.5 -197.5t271.5 -58.5q63 0 120.5 10.5t104.5 24.5t85 30.5t61 29.5l59 -164q-23 -12 -63.5 -30.5t-96 -34t-125 -27t-147.5 -11.5q-129 0 -235.5 23.5t-181.5 75t-117 132 t-42 193.5z" />
<glyph unicode="&#x191;" horiz-adv-x="1099" d="M-57 -367l18 150q16 -6 44 -8t44 -2q76 0 101.5 50t25.5 142v1454h856v-166h-657v-434h583v-162h-583v-657q0 -94 -13.5 -166t-47 -120t-93 -72.5t-151.5 -24.5q-29 0 -66.5 5t-60.5 11z" />
<glyph unicode="&#x192;" horiz-adv-x="790" d="M-139 -360l24 155q23 -6 48.5 -10t52.5 -4q96 0 137 60.5t41 176.5v1143q0 205 99 316.5t321 111.5q80 0 140 -12t85 -23l-35 -163q-23 12 -69 23t-105 11q-139 0 -192.5 -71.5t-53.5 -196.5v-92h410v-160h-410v-885q0 -205 -93 -304t-259 -99q-84 0 -141 23z" />
<glyph unicode="&#x193;" horiz-adv-x="1376" d="M119 711q0 178 53 316t144.5 232.5t214 143.5t264.5 49q92 0 151.5 -13.5t108.5 -29.5q33 106 97.5 153.5t193.5 47.5q29 0 67.5 -7.5t61.5 -17.5l-33 -145q-16 6 -44 10t-44 4q-57 0 -90 -22.5t-51.5 -59.5t-27.5 -83t-22 -91q-18 8 -54 21.5t-83 27t-103.5 22.5 t-117.5 9q-109 0 -197 -39t-149.5 -112.5t-95 -179t-33.5 -236.5q0 -127 29.5 -231.5t90 -179.5t149.5 -116t210 -41q86 0 146.5 9.5t86.5 17.5v522h199v-657q-25 -8 -71 -18.5t-106 -20.5t-132 -17.5t-146 -7.5q-150 0 -272.5 49.5t-210.5 143.5t-136 231.5t-48 315.5z" />
<glyph unicode="&#x194;" horiz-adv-x="1331" d="M16 1419h207q109 -233 216.5 -459.5t228.5 -463.5q121 238 227 463t217 460h203q-76 -166 -144.5 -312t-134 -279.5t-130 -256t-132.5 -241.5l25 -43q33 -59 63.5 -109.5t52 -95.5t35 -88t13.5 -88t-14.5 -95.5t-49.5 -91.5t-92 -68.5t-141 -27.5t-141.5 27.5t-92.5 68.5 t-49 91.5t-14 95.5t14 88t36.5 88t53.5 95t64 110l20 37q-68 119 -133.5 243.5t-131 257.5t-133 280.5t-143.5 313.5zM545 -84q0 -55 30.5 -95t90.5 -40q59 0 89.5 40t30.5 95q0 66 -41 131l-79 131l-80 -131q-41 -65 -41 -131z" />
<glyph unicode="&#x195;" horiz-adv-x="1824" d="M164 0v1556l190 33v-545q53 20 108.5 31.5t115.5 11.5q129 0 211.5 -35.5t131 -100t66 -154.5t17.5 -199v-119q0 -180 58 -254.5t181 -74.5t181.5 74.5t58.5 254.5v586h190v-612q0 -90 -17.5 -176.5t-64.5 -153t-131 -106.5t-217 -40t-217 40t-131 106.5t-64.5 152.5 t-17.5 177v104q0 98 -11 168t-40 113t-79 62.5t-126 19.5q-61 0 -120.5 -12.5t-82.5 -22.5v-885h-190z" />
<glyph unicode="&#x196;" horiz-adv-x="770" d="M176 387v1032h199v-1040q0 -127 48 -182.5t146 -55.5q53 0 89 9.5t59 17.5l37 -164q-27 -12 -85.5 -23.5t-127.5 -11.5q-197 0 -281 99.5t-84 318.5z" />
<glyph unicode="&#x197;" horiz-adv-x="665" d="M29 664v153h204v602h199v-602h205v-153h-205v-664h-199v664h-204z" />
<glyph unicode="&#x198;" horiz-adv-x="1359" d="M176 0v1419h199v-635q43 53 97 120t112.5 137.5t120 140t118.5 129.5q61 66 117.5 101.5t149.5 35.5q86 0 145 -32t90 -66l-90 -142q-35 33 -73 49.5t-66 16.5q-45 0 -77 -21.5t-73 -64.5q-117 -119 -204 -223.5t-164 -202.5q88 -63 189 -154.5t199.5 -194t183.5 -210 t140 -203.5h-233q-61 96 -143.5 193.5t-173.5 186.5t-185 165t-180 129v-674h-199z" />
<glyph unicode="&#x199;" horiz-adv-x="1069" d="M164 0v1206q0 94 13 166t47 120t93.5 72.5t151.5 24.5q29 0 66.5 -5t60.5 -11l-18 -150q-16 6 -44 8.5t-45 2.5q-76 0 -105.5 -50.5t-29.5 -142.5v-623l109 109q59 59 116.5 120.5t108.5 118t88 99.5h223q-47 -51 -102 -112.5t-114.5 -124t-120 -125t-113.5 -117.5 q61 -47 130 -117t135.5 -150.5t125.5 -163.5t100 -155h-223q-43 72 -99 146.5t-117.5 143t-125 126t-121.5 96.5v-512h-190z" />
<glyph unicode="&#x19a;" horiz-adv-x="587" d="M29 752v143h159v661l191 33v-694h188v-143h-188v-443q0 -47 8 -77.5t26.5 -49t49.5 -28t76 -15.5l-27 -159q-176 4 -250 75.5t-74 223.5v473h-159z" />
<glyph unicode="&#x19b;" horiz-adv-x="1044" d="M33 0q29 119 74 254t100 276.5t119.5 280.5t130.5 266l-47 109l-217 -74l-48 129l205 70q-35 59 -74.5 90t-99.5 31q-29 0 -50.5 -4.5t-31.5 -8.5l-26 154q10 4 48 10t87 6q123 0 197.5 -60.5t123.5 -158.5l254 88l47 -129l-243 -84q70 -168 132 -335t116.5 -326.5 t98.5 -307t79 -276.5h-199q-53 193 -119.5 420t-148.5 452q-55 -111 -103.5 -228.5t-88.5 -231t-70.5 -219t-51.5 -193.5h-194z" />
<glyph unicode="&#x19c;" horiz-adv-x="1996" d="M176 537v882h199v-831q0 -117 12 -201t43 -138t85 -80t140 -26q45 0 89 8.5t81 21.5t66 29.5t47 30.5q-20 66 -29.5 145t-9.5 159v882h199v-831q0 -117 12 -201t43 -138t85 -80t138 -26q33 0 70 2t71.5 6.5t62.5 8.5t42 8v1251h199v-1394q-76 -20 -201 -38t-266 -18 q-104 0 -186.5 29t-143.5 94q-23 -14 -60.5 -35.5t-88 -41t-112 -33t-130.5 -13.5q-141 0 -230.5 42t-139.5 118t-68.5 180.5t-18.5 227.5z" />
<glyph unicode="&#x19d;" horiz-adv-x="1490" d="M-57 -367l18 150q16 -6 44 -8t44 -2q76 0 101.5 50t25.5 142v1454h158q96 -102 205.5 -238.5t217 -280.5t203 -283.5t160.5 -247.5v1050h195v-1419h-166q-45 76 -103.5 170t-126 195.5t-140 206t-144.5 201.5t-139.5 183t-124.5 152v-1108q0 -94 -12.5 -166t-45 -120 t-92 -72.5t-151.5 -24.5q-29 0 -66.5 5t-60.5 11z" />
<glyph unicode="&#x19e;" d="M164 0v1034q66 16 174 34.5t250 18.5q127 0 211 -35.5t134 -100t70.5 -154.5t20.5 -199v-977h-190v936q0 98 -13.5 168t-44.5 113t-82 62.5t-127 19.5q-31 0 -63.5 -2.5t-62 -5.5t-53 -7t-34.5 -6v-899h-190z" />
<glyph unicode="&#x19f;" horiz-adv-x="1593" d="M119 711q0 182 54 321t147.5 232.5t217.5 140.5t263 47q137 0 259 -47t214 -140.5t146.5 -232.5t54.5 -321t-54.5 -321.5t-146.5 -233t-214 -140.5t-259 -47q-139 0 -263 47t-217.5 140.5t-147.5 233t-54 321.5zM330 639q18 -229 140 -362.5t327 -133.5q100 0 182 35 t141.5 99.5t95 155.5t44.5 206h-930zM330 793h930q-10 113 -46 201.5t-96.5 152t-141.5 97.5t-179 34q-205 0 -326 -129t-141 -356z" />
<glyph unicode="&#x1a0;" horiz-adv-x="1593" d="M119 711q0 182 54 321t147.5 232.5t217.5 140.5t263 47q113 0 215 -31.5t188 -97.5q53 59 67.5 113.5t14.5 126.5q0 20 -1 42.5t-3 34.5h193q2 -23 2 -42v-31q0 -98 -42 -186.5t-120 -161.5q74 -92 117 -219.5t43 -288.5q0 -182 -54.5 -321.5t-146.5 -233t-214 -140.5 t-259 -47q-139 0 -263 47t-217.5 140.5t-147.5 233t-54 321.5zM328 711q0 -129 32.5 -234.5t93 -179.5t147.5 -114t196 -40q106 0 193 40t147.5 114t93.5 179.5t33 234.5t-33 234.5t-93.5 179t-147.5 113.5t-193 40q-109 0 -196 -40t-147.5 -113.5t-93 -179t-32.5 -234.5z " />
<glyph unicode="&#x1a1;" horiz-adv-x="1208" d="M104 532q0 125 37 228.5t103.5 177.5t159 114t200.5 40q94 0 176 -31t146 -88q49 59 63.5 111.5t14.5 123.5q0 20 -1.5 43t-3.5 35h189q2 -23 2 -42v-32q0 -207 -168 -356q39 -66 60.5 -147.5t21.5 -176.5q0 -127 -37 -229t-103.5 -176t-158.5 -114t-201 -40t-201 40 t-158.5 114t-103.5 176t-37 229zM303 532q0 -180 80 -285.5t221 -105.5t221 105.5t80 285.5t-80 286t-221 106t-221 -106t-80 -286z" />
<glyph unicode="&#x1a2;" horiz-adv-x="2097" d="M117 711q0 182 52 320t141 231.5t208 140.5t250 47q104 0 201.5 -30.5t177.5 -90.5q47 39 134 80t206 41q141 0 226 -39t131 -109.5t61.5 -172t15.5 -224.5v-905h-199v854q0 117 -13 196.5t-42 130t-78 73t-119 22.5q-66 0 -115.5 -21.5t-84.5 -46.5q68 -92 107.5 -216 t39.5 -281q0 -182 -51 -320.5t-140 -231.5t-207 -140.5t-251 -47.5t-251 47.5t-207 140.5t-141 231.5t-52 320.5zM326 711q0 -129 29.5 -233.5t87 -178.5t139.5 -114t186 -40t186 40t138.5 114t86 178.5t29.5 233.5t-29.5 233.5t-86 178t-138.5 113.5t-186 40t-186 -40 t-139.5 -113.5t-87 -178t-29.5 -233.5z" />
<glyph unicode="&#x1a3;" horiz-adv-x="1681" d="M104 532q0 125 37 228.5t102.5 177.5t154.5 114t194 40q80 0 150.5 -25t129.5 -70q41 29 116 59.5t165 30.5q123 0 196.5 -35.5t113.5 -101t53.5 -155.5t13.5 -197v-977h-191v936q0 94 -8 161.5t-30.5 113t-63.5 67t-104 21.5q-53 0 -88 -13.5t-60 -29.5 q43 -70 67.5 -156t24.5 -189q0 -127 -36.5 -229t-101.5 -176t-154 -114t-193 -40t-193.5 40t-155 114t-102.5 176t-37 229zM303 532q0 -180 78 -285.5t211 -105.5t211 105.5t78 285.5t-78 286t-211 106t-211 -106t-78 -286z" />
<glyph unicode="&#x1a4;" horiz-adv-x="1454" d="M31 1108q0 121 60.5 186.5t160.5 96t232 37t278 6.5q299 0 459.5 -114t160.5 -339q0 -123 -44 -208t-127 -139t-201.5 -79t-268.5 -25h-157v-530h-199v1247q-188 -10 -188 -157q0 -16 1 -34t3 -30l-158 -18q-4 14 -8 42.5t-4 57.5zM584 694h149q102 0 184 13.5t138.5 46 t87.5 88t31 141.5q0 82 -32 135t-86.5 85t-126 44.5t-151.5 12.5q-94 0 -141 -1.5t-53 -1.5v-563z" />
<glyph unicode="&#x1a5;" horiz-adv-x="1206" d="M164 -379v1585q0 94 13 166t47 120t93.5 72.5t151.5 24.5q29 0 66.5 -5t60.5 -11l-18 -150q-16 6 -44 8.5t-45 2.5q-76 0 -105.5 -50.5t-29.5 -142.5v-194q53 18 111.5 29t112.5 11q117 0 214 -38.5t165.5 -110.5t106.5 -175.5t38 -232.5q0 -121 -32 -223t-93.5 -176 t-150.5 -115t-203 -41q-92 0 -163 25t-106 47v-426h-190zM354 225q35 -29 100.5 -55.5t143.5 -26.5q82 0 140.5 30t95 82t53 123t16.5 152q0 186 -92 288t-246 102q-31 0 -63.5 -4.5t-62 -9.5t-52 -11t-33.5 -10v-660z" />
<glyph unicode="&#x1a6;" horiz-adv-x="1288" d="M176 0v1589h199v-168q76 6 178 6q299 0 455.5 -109.5t156.5 -332.5q0 -139 -78.5 -238.5t-222.5 -148.5q35 -43 92.5 -122t124 -185.5t138 -237.5t135.5 -276h-213q-147 299 -272.5 493.5t-204.5 288.5h-289v-559h-199zM375 721h141q102 0 184 9t138.5 38t87 81t30.5 138 q0 80 -30.5 133.5t-82.5 84t-123 43t-151 12.5h-110q-45 0 -84 -5v-534z" />
<glyph unicode="&#x1a7;" horiz-adv-x="1089" d="M63 356q0 100 31 171t87.5 122t133 88t168.5 74q63 25 118.5 49.5t96.5 54t63.5 68.5t22.5 96q0 51 -21.5 89t-58 62.5t-86 37t-106.5 12.5q-113 0 -198 -25.5t-128 -52.5l-63 162q49 33 154.5 60.5t234.5 27.5q223 0 350 -104.5t127 -290.5q0 -90 -29.5 -153.5 t-81 -109.5t-121 -80t-147.5 -61q-68 -25 -128 -49t-107 -58t-75 -80t-28 -112q0 -213 312 -213q139 0 235 33t144 59l59 -163q-23 -12 -62.5 -29.5t-95 -33t-126 -27t-154.5 -11.5q-248 0 -384.5 100.5t-136.5 286.5z" />
<glyph unicode="&#x1a8;" horiz-adv-x="913" d="M80 274q0 76 22.5 128.5t65.5 89t102.5 64.5t132.5 56q113 43 167.5 80t54.5 109q0 68 -59.5 99.5t-139.5 31.5q-92 0 -157.5 -17.5t-96.5 -33.5l-35 163q16 6 46 14.5t69 15.5t83 12.5t91 5.5q180 0 284.5 -83t104.5 -225q0 -72 -24.5 -121t-65.5 -83.5t-97.5 -60 t-117.5 -50.5q-127 -51 -182.5 -92t-55.5 -111q0 -68 56.5 -98.5t173.5 -30.5q119 0 190.5 24.5t104.5 37.5l34 -164q-29 -12 -108.5 -36t-220.5 -24q-201 0 -311.5 76t-110.5 223z" />
<glyph unicode="&#x1a9;" horiz-adv-x="1153" d="M68 0v150q39 63 93 132.5t116.5 144.5t128 152.5t126.5 157.5q-59 78 -121.5 156t-121 150.5t-108.5 136t-85 114.5v125h973v-170h-711q29 -43 75 -101t100.5 -125t114 -139.5t114.5 -144.5q-113 -147 -240 -289.5t-223 -279.5h772v-170h-1003z" />
<glyph unicode="&#x1aa;" horiz-adv-x="585" d="M-188 1313q0 37 13 85t47 91t90 71.5t142 28.5q174 0 246 -98t72 -272v-1272q0 -47 8 -78t26.5 -49.5t49.5 -27.5t76 -15l-27 -160q-176 4 -250 75.5t-74 223.5v1165q-68 -41 -155 -41q-70 0 -120 25t-82 62.5t-47 87t-15 98.5zM-41 1311q0 -23 7 -46.5t22.5 -44 t41 -32.5t62.5 -12q45 0 78 17t61 50v29q0 82 -34.5 126t-104.5 44q-66 0 -99.5 -42t-33.5 -89z" />
<glyph unicode="&#x1ab;" horiz-adv-x="823" d="M152 412v950l190 33v-330h403v-160h-403v-491q0 -80 12.5 -132.5t37 -82t61 -42t86.5 -12.5q88 0 147 10.5t80 14.5q2 -12 4 -34.5t4 -47.5t3 -48.5t1 -39.5q0 -88 -10 -158.5t-40 -121t-85 -77t-145 -26.5q-29 0 -66 5t-59 11l16 140q12 -4 41 -7.5t45 -3.5 q78 0 104.5 51.5t26.5 143.5q0 4 -1 11t-1 14v12q-25 -2 -59.5 -5t-69.5 -3q-174 0 -248.5 105.5t-74.5 320.5z" />
<glyph unicode="&#x1ac;" horiz-adv-x="1212" d="M31 1108q0 92 32.5 152.5t83 95.5t113 49t123.5 14h797v-166h-447v-1253h-198v1253h-144q-86 0 -137 -44t-51 -119q0 -16 1 -34t3 -30l-164 -18q-4 14 -8 42.5t-4 57.5z" />
<glyph unicode="&#x1ad;" horiz-adv-x="823" d="M152 412v749q0 205 99 316.5t316 111.5q86 0 145.5 -12t84.5 -23l-35 -163q-25 12 -70 23t-110 11q-133 0 -186.5 -72.5t-53.5 -195.5v-92h416v-160h-416v-491q0 -80 12.5 -132.5t37 -82t61 -42t86.5 -12.5q88 0 139 19.5t70 28.5l38 -156q-29 -14 -100.5 -37t-163.5 -23 q-109 0 -179.5 28t-113.5 83t-60 136.5t-17 187.5z" />
<glyph unicode="&#x1ae;" horiz-adv-x="1157" d="M33 1253v166h1091v-166h-446v-1288q0 -92 25.5 -142t101.5 -50q16 0 44 2t44 8l18 -150q-23 -6 -60.5 -11t-66.5 -5q-92 0 -151.5 24.5t-93 72.5t-47 120t-13.5 166v1253h-446z" />
<glyph unicode="&#x1af;" horiz-adv-x="1454" d="M166 528v891h199v-868q0 -106 24.5 -183t69.5 -126t107.5 -73t138.5 -24t138 24t107 73t69.5 125.5t24.5 183.5v868h150q47 0 83 35t36 109q0 20 -1 42.5t-3 34.5h192q2 -23 2 -42v-31q0 -47 -12 -94.5t-43 -87t-81 -67.5t-124 -36v-754q0 -119 -31.5 -221t-98 -177 t-168 -118t-240.5 -43t-242 43t-168.5 118t-97 177t-31.5 221z" />
<glyph unicode="&#x1b0;" horiz-adv-x="1222" d="M152 467v598h190v-557q0 -195 61.5 -279t206.5 -84q31 0 64 2.5t62.5 5.5t52 6t32.5 7v899h142q47 0 82.5 35t35.5 108q0 20 -1 43t-3 35h189q2 -23 2 -42v-32q0 -47 -12.5 -94t-41 -86t-79 -66.5t-123.5 -35.5v-899q-66 -16 -173.5 -35t-248.5 -19q-123 0 -207 36 t-135 101.5t-73.5 154.5t-22.5 198z" />
<glyph unicode="&#x1b1;" horiz-adv-x="1605" d="M106 1251v168h547v-139q-66 -53 -121 -115.5t-96 -138.5t-64.5 -167t-23.5 -202q0 -121 33 -217t92 -162.5t143 -101.5t187 -35q102 0 186 35t143.5 101.5t92 163t32.5 216.5q0 111 -23.5 202t-64.5 167t-97 138.5t-120 115.5v139h547v-168h-293q47 -45 94.5 -107.5 t84 -138t59 -163.5t22.5 -185q0 -170 -54 -299t-145 -216t-212 -131t-252 -44q-133 0 -253 44t-211 131t-145.5 216t-54.5 299q0 96 22.5 184.5t59.5 164t84 138t94 107.5h-293z" />
<glyph unicode="&#x1b2;" horiz-adv-x="1421" d="M166 528v891h199v-868q0 -106 24.5 -183t67.5 -126t101 -73t126 -24q199 0 298 138.5t99 431.5q0 272 -66.5 407t-223.5 135q-29 0 -46.5 -1t-29.5 -3l-6 166q25 4 56.5 5t59.5 1q131 0 219.5 -52t141.5 -145t76.5 -221t23.5 -278q0 -135 -27.5 -270t-96 -245 t-183.5 -177.5t-289 -67.5q-141 0 -240.5 43t-163 118t-92 177t-28.5 221z" />
<glyph unicode="&#x1b3;" horiz-adv-x="1376" d="M12 1419h234q80 -168 176 -341t196 -333q23 47 63 124t82 155t78 144.5t52 93.5q53 88 106.5 133t149.5 45q90 0 149.5 -34t102.5 -77l-98 -135q-37 37 -66 54.5t-70 17.5t-67.5 -19.5t-55.5 -68.5q-29 -45 -72.5 -123t-90.5 -166t-92.5 -173t-75.5 -143v-573h-199v571 q-141 217 -266 430t-236 418z" />
<glyph unicode="&#x1b4;" horiz-adv-x="1167" d="M6 -346l35 153q23 -10 58.5 -19t70.5 -9q55 0 98 11t77 35.5t61.5 64.5t52.5 96q-129 244 -241 521t-185 558h205q23 -92 54.5 -198.5t70 -219t84 -226.5t96.5 -218q27 80 50 157.5t44.5 156.5t42 162t43.5 173q27 113 86 176.5t186 63.5q41 0 83 -8.5t85 -22.5l-33 -148 q-37 18 -104 19q-59 0 -88 -32t-45 -93q-59 -242 -126 -449.5t-144 -390.5q-41 -92 -84 -157.5t-96.5 -107.5t-120 -61.5t-150.5 -19.5q-23 0 -47.5 3t-48 8.5t-43 11.5t-27.5 10z" />
<glyph unicode="&#x1b5;" horiz-adv-x="1173" d="M68 0v133q59 113 144 251t181 280h-243v153h352q92 129 178 241.5t158 194.5h-734v166h973v-157q-66 -74 -160 -190t-194 -255h313v-153h-422q-90 -129 -171 -256t-140 -242h795v-166h-1030z" />
<glyph unicode="&#x1b6;" horiz-adv-x="964" d="M74 0v119q43 84 105.5 180t133.5 195h-180v135h281q63 84 120.5 155.5t102.5 124.5h-535v156h768v-141q-41 -43 -107.5 -120t-141.5 -175h229v-135h-332q-61 -86 -119.5 -172t-105.5 -166h594v-156h-813z" />
<glyph unicode="&#x1b7;" horiz-adv-x="1161" d="M51 72l60 164q23 -12 60.5 -29t84.5 -31t104.5 -24.5t120.5 -10.5q174 0 271.5 59.5t97.5 198.5q0 82 -34 136.5t-92 87t-137 46t-171 13.5h-39v119q51 51 107.5 112.5t109.5 123t100 118.5t80 98h-657v166h909v-119q-31 -45 -78 -104t-104.5 -123.5t-118.5 -130 t-119 -127.5q92 -10 175 -38.5t144.5 -79t97.5 -126t36 -176.5q0 -111 -42 -191.5t-117 -133t-181.5 -77t-235.5 -24.5q-78 0 -147.5 11.5t-124.5 27t-96 34t-64 30.5z" />
<glyph unicode="&#x1b8;" horiz-adv-x="1161" d="M102 395q0 100 36 176t97.5 126.5t144.5 79t175 38.5q-59 61 -119.5 127t-118 130.5t-104.5 123.5t-78 104v119h909v-166h-657q33 -41 80 -98t100.5 -118.5t109.5 -123t107 -112.5v-119h-39q-92 0 -170.5 -13.5t-137 -46t-92.5 -87t-34 -136.5q0 -139 97.5 -198.5 t271.5 -59.5q63 0 120.5 10.5t104.5 24.5t85 30.5t61 29.5l59 -164q-23 -12 -63.5 -30.5t-96 -34t-125 -27t-147.5 -11.5q-129 0 -235.5 24.5t-181.5 77t-117 133t-42 191.5z" />
<glyph unicode="&#x1b9;" horiz-adv-x="964" d="M82 63q0 100 32.5 171t89 117t133.5 73t163 39q-51 57 -105.5 123.5t-103.5 133t-91 127t-71 107.5v111h795v-160h-559q27 -43 68.5 -99t89.5 -118.5t99.5 -124t96.5 -112.5v-125h-35q-78 0 -151.5 -10.5t-131 -39t-91.5 -79t-34 -129.5q0 -133 88.5 -206t253.5 -73 q96 0 180.5 18.5t131.5 40.5l41 -163q-51 -27 -146.5 -45.5t-208.5 -18.5q-121 0 -219 27.5t-168.5 83t-108.5 138t-38 193.5z" />
<glyph unicode="&#x1ba;" horiz-adv-x="970" d="M16 -233q0 68 23.5 109.5t63.5 69t91.5 44t108.5 30.5q74 18 141.5 33t119.5 39.5t84 64.5t32 105q0 92 -90 140.5t-309 54.5v127q104 92 189 177t136 144h-561v160h793v-117q-66 -84 -155 -177t-200 -191q98 -14 172 -38t122 -63t72.5 -96t24.5 -137q0 -98 -37.5 -158.5 t-104 -100.5t-156 -63.5t-191.5 -48.5q-29 -6 -63.5 -14t-65.5 -23.5t-51.5 -40t-20.5 -63.5q0 -31 7.5 -55.5t11.5 -34.5l-150 -31q-12 23 -24.5 60t-12.5 94z" />
<glyph unicode="&#x1bb;" horiz-adv-x="1116" d="M82 1286q29 29 68.5 58.5t91 53t116 39t142.5 15.5q211 0 326.5 -99.5t115.5 -287.5q0 -86 -42 -167t-107 -159h178v-149h-316l-114 -117q-86 -88 -147.5 -165t-65.5 -142h653v-166h-870q-8 94 14 175t65 152.5t101.5 136t120.5 126.5h-238v149h387q72 72 122 147t50 165 q0 61 -18.5 104t-50 71.5t-73.5 42t-91 13.5q-68 0 -121 -16.5t-94 -38t-68 -45t-41 -35.5z" />
<glyph unicode="&#x1bc;" horiz-adv-x="1101" d="M53 1253v166h926v-166h-545q-2 -29 -6 -80t-8 -107t-8 -109.5t-9 -84.5q311 -14 472 -136t161 -333q0 -94 -32.5 -173.5t-101 -137t-173 -90.5t-246.5 -33q-59 0 -119.5 8.5t-112.5 20.5t-91 24.5t-56 20.5l35 168q16 -8 50 -20.5t78 -23.5t98.5 -19.5t111.5 -8.5 q96 0 163 20.5t109 55.5t60 81t18 97q0 78 -31.5 137.5t-104.5 100.5t-191.5 61.5t-292.5 20.5q8 78 15 147.5t12.5 135t9.5 129t8 128.5h-199z" />
<glyph unicode="&#x1bd;" horiz-adv-x="1015" d="M57 913v152h824v-152h-492q-2 -25 -4 -58.5t-5 -69t-7 -67.5t-6 -54h43q117 0 212 -20.5t162.5 -64.5t104.5 -112t37 -160q0 -154 -120 -243t-349 -89q-57 0 -115.5 7.5t-109 16.5t-87 19.5t-51.5 16.5l35 160q12 -6 44 -15.5t76 -19.5t96 -17.5t108 -7.5q145 0 213.5 44 t68.5 128q0 57 -20.5 97t-71.5 65t-137 36t-217 11h-103q14 115 22.5 207t14.5 190h-166z" />
<glyph unicode="&#x1be;" horiz-adv-x="948" d="M96 35l35 164q31 -14 108.5 -38t196.5 -24q117 0 178.5 31t61.5 98q0 70 -55.5 112t-182.5 93q-61 25 -114.5 50.5t-91 64.5t-59 97t-21.5 148v531l192 33v-330h404v-158h-404v-78q0 -41 10.5 -72.5t34 -57t61 -47t95.5 -42.5q74 -29 133 -56.5t102 -64t65.5 -88 t22.5 -127.5q0 -147 -115.5 -223t-316.5 -76q-141 0 -226 24t-114 36z" />
<glyph unicode="&#x1bf;" horiz-adv-x="1169" d="M164 -379v1383q66 25 168 54t235 29q117 0 209 -32.5t156.5 -95t99.5 -150.5t35 -199q0 -164 -57.5 -279.5t-155.5 -198.5t-227 -141.5t-273 -105.5v-264h-190zM354 68q90 33 182.5 73.5t166 104t119.5 152.5t46 216q0 141 -79.5 222.5t-223.5 81.5q-86 0 -134 -12.5 t-77 -22.5v-815z" />
<glyph unicode="&#x1c0;" horiz-adv-x="571" d="M197 -379v1983h178v-1983h-178z" />
<glyph unicode="&#x1c1;" horiz-adv-x="989" d="M615 -379v1983h178v-1983h-178zM197 -379v1983h178v-1983h-178z" />
<glyph unicode="&#x1c2;" horiz-adv-x="1165" d="M90 348v152h404v241h-404v152h404v711h178v-711h403v-152h-403v-241h403v-152h-403v-727h-178v727h-404z" />
<glyph unicode="&#x1c3;" horiz-adv-x="565" d="M145 111q0 55 37 96t101 41q63 0 100 -41t37 -96t-37 -96.5t-100 -41.5t-100.5 41.5t-37.5 96.5zM180 1034v385h205v-385q0 -172 -12.5 -312t-30.5 -280h-119q-18 139 -30.5 279.5t-12.5 312.5z" />
<glyph unicode="&#x1c4;" horiz-adv-x="2641" d="M176 23v1376q84 20 187.5 27.5t189.5 7.5q174 0 319.5 -44t250 -133.5t161.5 -225.5t57 -320t-57 -320.5t-161.5 -225.5t-250 -133t-319.5 -44q-86 0 -189.5 7.5t-187.5 27.5zM375 168q18 -2 64 -4t130 -2q283 0 422 144.5t139 404.5t-139 404.5t-422 144.5 q-84 0 -130 -2.5t-64 -4.5v-1085zM1536 0v133q43 82 101 180.5t124.5 200.5t138.5 206.5t142.5 201t137 180.5t122.5 147h-730v170h973v-157q-47 -53 -109.5 -128t-132 -166t-143.5 -192.5t-144.5 -205t-134 -206t-114.5 -194.5h799v-170h-1030zM1787 1812l80 90l199 -180 l199 180l80 -90l-279 -293z" />
<glyph unicode="&#x1c5;" horiz-adv-x="2433" d="M176 23v1376q84 20 187.5 27.5t189.5 7.5q174 0 319.5 -44t250 -133.5t161.5 -225.5t57 -320t-57 -320.5t-161.5 -225.5t-250 -133t-319.5 -44q-86 0 -189.5 7.5t-187.5 27.5zM375 168q18 -2 64 -4t130 -2q283 0 422 144.5t139 404.5t-139 404.5t-422 144.5 q-84 0 -130 -2.5t-64 -4.5v-1085zM1542 0v127q49 90 120.5 198.5t150.5 216t153.5 203t130.5 160.5h-527v160h768v-143q-43 -47 -113.5 -133.5t-151.5 -190.5t-162 -219t-142 -219h586v-160h-813zM1662 1493l80 90l199 -180l199 180l80 -90l-279 -293z" />
<glyph unicode="&#x1c6;" horiz-adv-x="2179" d="M104 532q0 123 32 225.5t93.5 176.5t150.5 115t204 41q92 0 162.5 -25t105.5 -47v538l190 33v-1558q-66 -18 -168 -37t-235 -19q-123 0 -221.5 39t-168 111t-107.5 175t-38 232zM303 532q0 -186 92 -287.5t246 -101.5q78 0 130 7.5t81 15.5v674q-35 29 -100.5 55.5 t-143.5 26.5q-82 0 -140 -30t-95 -82t-53.5 -124t-16.5 -154zM1288 0v127q49 90 120.5 198.5t150.5 216t153.5 203t130.5 160.5h-527v160h768v-143q-43 -47 -113.5 -133.5t-151.5 -190.5t-162 -219t-142 -219h586v-160h-813zM1409 1493l80 90l199 -180l199 180l80 -90 l-279 -293z" />
<glyph unicode="&#x1c7;" horiz-adv-x="2084" d="M176 0v1419h199v-1247h655v-172h-854zM1087 84l78 158q43 -31 111.5 -65t171.5 -34q147 0 214.5 75t67.5 257v944h199v-962q0 -102 -21.5 -190.5t-75.5 -155t-145.5 -104.5t-228.5 -38q-70 0 -128 11.5t-105.5 29t-82.5 37t-55 37.5z" />
<glyph unicode="&#x1c8;" horiz-adv-x="1589" d="M176 0v1419h199v-1247h655v-172h-854zM932 -360l24 155q20 -6 47 -10t50 -4q98 0 140 60.5t42 176.5v1047h190v-1045q0 -205 -93 -304t-271 -99q-25 0 -63.5 6.5t-65.5 16.5zM1206 1382q0 57 36 91t87 34t87 -33.5t36 -91.5q0 -57 -36 -91t-87 -34t-87 34t-36 91z" />
<glyph unicode="&#x1c9;" horiz-adv-x="1085" d="M160 279v1277l190 33v-1280q0 -47 8.5 -77.5t26.5 -49t49 -28t76 -15.5l-27 -159q-176 4 -249.5 75.5t-73.5 223.5zM428 -360l24 155q20 -6 47 -10t50 -4q98 0 140 60.5t42 176.5v1047h190v-1045q0 -205 -93 -304t-271 -99q-25 0 -63.5 6.5t-65.5 16.5zM702 1382 q0 57 36 91t87 34t87 -33.5t36 -91.5q0 -57 -36 -91t-87 -34t-87 34t-36 91z" />
<glyph unicode="&#x1ca;" horiz-adv-x="2512" d="M176 0v1419h158q96 -102 205.5 -238.5t217 -280.5t203 -283.5t160.5 -247.5v1050h195v-1419h-166q-45 76 -103.5 170t-126 195.5t-140 206t-144.5 201.5t-139.5 183t-124.5 152v-1108h-195zM1515 84l78 158q43 -31 111.5 -65t171.5 -34q147 0 214.5 75t67.5 257v944h199 v-962q0 -102 -21.5 -190.5t-75.5 -155t-145.5 -104.5t-228.5 -38q-70 0 -128 11.5t-105.5 29t-82.5 37t-55 37.5z" />
<glyph unicode="&#x1cb;" horiz-adv-x="2017" d="M176 0v1419h158q96 -102 205.5 -238.5t217 -280.5t203 -283.5t160.5 -247.5v1050h195v-1419h-166q-45 76 -103.5 170t-126 195.5t-140 206t-144.5 201.5t-139.5 183t-124.5 152v-1108h-195zM1360 -360l24 155q20 -6 47 -10t50 -4q98 0 140 60.5t42 176.5v1047h190v-1045 q0 -205 -93 -304t-271 -99q-25 0 -63.5 6.5t-65.5 16.5zM1634 1382q0 57 36 91t87 34t87 -33.5t36 -91.5q0 -57 -36 -91t-87 -34t-87 34t-36 91z" />
<glyph unicode="&#x1cc;" horiz-adv-x="1701" d="M164 0v1034q66 16 174 34.5t250 18.5q127 0 211 -35.5t134 -100t70.5 -154.5t20.5 -199v-598h-190v557q0 98 -13.5 168t-44.5 113t-82 62.5t-127 19.5q-31 0 -63.5 -2.5t-62 -5.5t-53 -7t-34.5 -6v-899h-190zM1045 -360l24 155q20 -6 47 -10t50 -4q98 0 140 60.5 t42 176.5v1047h190v-1045q0 -205 -93 -304t-271 -99q-25 0 -63.5 6.5t-65.5 16.5zM1319 1382q0 57 36 91t87 34t87 -33.5t36 -91.5q0 -57 -36 -91t-87 -34t-87 34t-36 91z" />
<glyph unicode="&#x1cd;" horiz-adv-x="1357" d="M16 0q82 225 154 416.5t140.5 363.5t136 329t141.5 310h182q74 -154 141.5 -310.5t136 -328.5t140.5 -363.5t153 -416.5h-217q-35 92 -65.5 181t-63.5 181h-643l-129 -362h-207zM410 526h528q-66 178 -130.5 345t-133.5 321q-72 -154 -136.5 -321t-127.5 -345zM399 1812 l80 90l199 -180l199 180l80 -90l-279 -293z" />
<glyph unicode="&#x1ce;" horiz-adv-x="1069" d="M88 317q0 88 36 151.5t97.5 102.5t143 57.5t172.5 18.5q29 0 59.5 -3t58 -8t48 -9t28.5 -6v53q0 47 -10 93t-37 82t-73 57.5t-119 21.5q-94 0 -165 -13.5t-106 -27.5l-22 157q37 16 123 32t186 16q115 0 193.5 -30t127 -84t69 -129t20.5 -165v-666q-25 -4 -69 -11 t-99.5 -13t-120 -11.5t-127.5 -5.5q-90 0 -166 18.5t-131 58.5t-86 105.5t-31 157.5zM281 319q0 -102 65.5 -142t177.5 -40q68 0 120 3t87 12v317q-20 10 -66.5 17.5t-111.5 7.5q-43 0 -91 -6.5t-88 -26t-66.5 -53.5t-26.5 -89zM256 1493l80 90l199 -180l199 180l80 -90 l-279 -293z" />
<glyph unicode="&#x1cf;" horiz-adv-x="550" d="M176 0v1419h199v-1419h-199zM0 1812l80 90l199 -180l199 180l80 -90l-279 -293z" />
<glyph unicode="&#x1d0;" horiz-adv-x="518" d="M164 0v1065h190v-1065h-190zM-15 1493l80 90l199 -180l199 180l80 -90l-279 -293z" />
<glyph unicode="&#x1d1;" horiz-adv-x="1593" d="M119 711q0 182 54 321t147.5 232.5t217.5 140.5t263 47q137 0 259 -47t214 -140.5t146.5 -232.5t54.5 -321t-54.5 -321.5t-146.5 -233t-214 -140.5t-259 -47q-139 0 -263 47t-217.5 140.5t-147.5 233t-54 321.5zM328 711q0 -129 32.5 -234.5t93 -179.5t147.5 -114 t196 -40t194.5 40t146 114t93.5 179.5t33 234.5t-33 234.5t-93.5 179t-146.5 113.5t-194 40q-109 0 -196 -40t-147.5 -113.5t-93 -179t-32.5 -234.5zM518 1812l80 90l199 -180l199 180l80 -90l-279 -293z" />
<glyph unicode="&#x1d2;" horiz-adv-x="1208" d="M104 532q0 125 37 228.5t103.5 177.5t159 114t200.5 40q109 0 201 -40t158.5 -114t103.5 -177.5t37 -228.5q0 -127 -37 -229t-103.5 -176t-158.5 -114t-201 -40t-201 40t-158.5 114t-103.5 176t-37 229zM303 532q0 -180 81 -285.5t220 -105.5t220 105.5t81 285.5t-81 286 t-220 106t-220 -106t-81 -286zM325 1493l80 90l199 -180l199 180l80 -90l-279 -293z" />
<glyph unicode="&#x1d3;" horiz-adv-x="1409" d="M166 528v891h199v-868q0 -213 94 -309.5t246 -96.5q76 0 138 24t107 73t69.5 125.5t24.5 183.5v868h199v-891q0 -119 -31.5 -221t-98 -177t-168 -118t-240.5 -43t-242 43t-168.5 118t-97 177t-31.5 221zM425 1812l80 90l199 -180l199 180l80 -90l-279 -293z" />
<glyph unicode="&#x1d4;" d="M152 467v598h190v-557q0 -195 61.5 -279t206.5 -84q31 0 64 2.5t61.5 5.5t52 6t33.5 7v899h191v-1034q-66 -16 -173.5 -35t-248.5 -19q-123 0 -207 36t-135 101.5t-73.5 154.5t-22.5 198zM303 1493l80 90l199 -180l199 180l80 -90l-279 -293z" />
<glyph unicode="&#x1d5;" horiz-adv-x="1409" d="M166 528v891h199v-868q0 -213 94 -309.5t246 -96.5q76 0 138 24t107 73t69.5 125.5t24.5 183.5v868h199v-891q0 -119 -31.5 -221t-98 -177t-168 -118t-240.5 -43t-242 43t-168.5 118t-97 177t-31.5 221zM387 1643q0 51 31.5 81.5t78.5 30.5t79 -30.5t32 -81.5t-32 -82 t-79 -31t-78.5 31t-31.5 82zM444 1839v131h520v-131h-520zM800 1643q0 51 32 81.5t79 30.5q45 0 77.5 -30.5t32.5 -81.5t-32.5 -82t-77.5 -31q-47 0 -79 31t-32 82z" />
<glyph unicode="&#x1d6;" d="M152 467v598h190v-557q0 -195 61.5 -279t206.5 -84q31 0 64 2.5t61.5 5.5t52 6t33.5 7v899h191v-1034q-66 -16 -173.5 -35t-248.5 -19q-123 0 -207 36t-135 101.5t-73.5 154.5t-22.5 198zM265 1315q0 51 31.5 81.5t78.5 30.5t79 -30.5t32 -81.5t-32 -82t-79 -31t-78.5 31 t-31.5 82zM322 1511v131h520v-131h-520zM678 1315q0 51 32 81.5t79 30.5q45 0 77.5 -30.5t32.5 -81.5t-32.5 -82t-77.5 -31q-47 0 -79 31t-32 82z" />
<glyph unicode="&#x1d7;" horiz-adv-x="1409" d="M166 528v891h199v-868q0 -213 94 -309.5t246 -96.5q76 0 138 24t107 73t69.5 125.5t24.5 183.5v868h199v-891q0 -119 -31.5 -221t-98 -177t-168 -118t-240.5 -43t-242 43t-168.5 118t-97 177t-31.5 221zM315 1642q0 51 32.5 82t77.5 31q47 0 79 -30.5t32 -82.5 q0 -51 -31.5 -81.5t-79.5 -30.5q-45 0 -77.5 30.5t-32.5 81.5zM598 1681l196 289l123 -106l-227 -260zM872 1642q0 51 31.5 82t79.5 31q47 0 78.5 -30.5t31.5 -82.5q0 -51 -31.5 -81.5t-78.5 -30.5t-79 30.5t-32 81.5z" />
<glyph unicode="&#x1d8;" d="M152 467v598h190v-557q0 -195 61.5 -279t206.5 -84q31 0 64 2.5t61.5 5.5t52 6t33.5 7v899h191v-1034q-66 -16 -173.5 -35t-248.5 -19q-123 0 -207 36t-135 101.5t-73.5 154.5t-22.5 198zM254 1315q0 51 33 81.5t78 30.5q47 0 79 -30.5t32 -81.5t-32 -82t-79 -31 q-45 0 -78 31t-33 82zM494 1460l197 289l122 -107l-227 -260zM689 1315q0 51 31.5 81.5t78.5 30.5t79 -30.5t32 -81.5t-32 -82t-79 -31t-78.5 31t-31.5 82z" />
<glyph unicode="&#x1d9;" horiz-adv-x="1409" d="M166 528v891h199v-868q0 -213 94 -309.5t246 -96.5q76 0 138 24t107 73t69.5 125.5t24.5 183.5v868h199v-891q0 -119 -31.5 -221t-98 -177t-168 -118t-240.5 -43t-242 43t-168.5 118t-97 177t-31.5 221zM318 1642q0 51 32.5 82t77.5 31q47 0 79 -30.5t32 -82.5 q0 -51 -31.5 -81.5t-79.5 -30.5q-45 0 -77.5 30.5t-32.5 81.5zM453 1878l59 92l193 -125l192 125l60 -92l-252 -195zM875 1642q0 51 31.5 82t79.5 31q47 0 78.5 -30.5t31.5 -82.5q0 -51 -31.5 -81.5t-78.5 -30.5t-79 30.5t-32 81.5z" />
<glyph unicode="&#x1da;" d="M152 467v598h190v-557q0 -195 61.5 -279t206.5 -84q31 0 64 2.5t61.5 5.5t52 6t33.5 7v899h191v-1034q-66 -16 -173.5 -35t-248.5 -19q-123 0 -207 36t-135 101.5t-73.5 154.5t-22.5 198zM256 1315q0 51 33 81.5t78 30.5q47 0 79 -30.5t32 -81.5t-32 -82t-79 -31 q-45 0 -78 31t-33 82zM330 1610l59 92l193 -125l192 125l60 -92l-252 -195zM691 1315q0 51 31.5 81.5t78.5 30.5t79 -30.5t32 -81.5t-32 -82t-79 -31t-78.5 31t-31.5 82z" />
<glyph unicode="&#x1db;" horiz-adv-x="1409" d="M166 528v891h199v-868q0 -213 94 -309.5t246 -96.5q76 0 138 24t107 73t69.5 125.5t24.5 183.5v868h199v-891q0 -119 -31.5 -221t-98 -177t-168 -118t-240.5 -43t-242 43t-168.5 118t-97 177t-31.5 221zM315 1642q0 51 31.5 82t78.5 31t79 -30.5t32 -82.5 q0 -51 -31.5 -81.5t-79.5 -30.5q-47 0 -78.5 30.5t-31.5 81.5zM491 1864l123 106l197 -289l-93 -77zM872 1642q0 51 31.5 82t79.5 31q45 0 77.5 -30.5t32.5 -82.5q0 -51 -32.5 -81.5t-77.5 -30.5q-47 0 -79 30.5t-32 81.5z" />
<glyph unicode="&#x1dc;" d="M152 467v598h190v-557q0 -195 61.5 -279t206.5 -84q31 0 64 2.5t61.5 5.5t52 6t33.5 7v899h191v-1034q-66 -16 -173.5 -35t-248.5 -19q-123 0 -207 36t-135 101.5t-73.5 154.5t-22.5 198zM254 1315q0 51 32 81.5t79 30.5t79 -30.5t32 -81.5t-32 -82t-79 -31t-79 31 t-32 82zM351 1642l122 107l197 -289l-92 -78zM689 1315q0 51 31.5 81.5t78.5 30.5q45 0 78 -30.5t33 -81.5t-33 -82t-78 -31q-47 0 -78.5 31t-31.5 82z" />
<glyph unicode="&#x1dd;" horiz-adv-x="1144" d="M104 518v49q0 10 2 19h730q-12 164 -97.5 251t-261.5 87q-100 0 -168.5 -17.5t-103.5 -34.5l-27 160q35 18 122 39t198 21q139 0 240.5 -42t167 -116t97 -176.5t31.5 -220.5q0 -141 -41 -247t-108.5 -175.5t-155.5 -104.5t-180 -35q-213 0 -329 135.5t-116 407.5z M303 432q-2 -129 64.5 -212t183.5 -83q66 0 116 25.5t83.5 66.5t54 94.5t26.5 108.5h-528z" />
<glyph unicode="&#x1de;" horiz-adv-x="1357" d="M16 0q82 225 154 416.5t140.5 363.5t136 329t141.5 310h182q74 -154 141.5 -310.5t136 -328.5t140.5 -363.5t153 -416.5h-217q-35 92 -65.5 181t-63.5 181h-643l-129 -362h-207zM410 526h528q-66 178 -130.5 345t-133.5 321q-72 -154 -136.5 -321t-127.5 -345zM361 1643 q0 51 31.5 81.5t78.5 30.5t79 -30.5t32 -81.5t-32 -82t-79 -31t-78.5 31t-31.5 82zM418 1839v131h520v-131h-520zM774 1643q0 51 32 81.5t79 30.5q45 0 77.5 -30.5t32.5 -81.5t-32.5 -82t-77.5 -31q-47 0 -79 31t-32 82z" />
<glyph unicode="&#x1df;" horiz-adv-x="1069" d="M88 317q0 88 36 151.5t97.5 102.5t143 57.5t172.5 18.5q29 0 59.5 -3t58 -8t48 -9t28.5 -6v53q0 47 -10 93t-37 82t-73 57.5t-119 21.5q-94 0 -165 -13.5t-106 -27.5l-22 157q37 16 123 32t186 16q115 0 193.5 -30t127 -84t69 -129t20.5 -165v-666q-25 -4 -69 -11 t-99.5 -13t-120 -11.5t-127.5 -5.5q-90 0 -166 18.5t-131 58.5t-86 105.5t-31 157.5zM281 319q0 -102 65.5 -142t177.5 -40q68 0 120 3t87 12v317q-20 10 -66.5 17.5t-111.5 7.5q-43 0 -91 -6.5t-88 -26t-66.5 -53.5t-26.5 -89zM222 1315q0 51 31.5 81.5t78.5 30.5t79 -30.5 t32 -81.5t-32 -82t-79 -31t-78.5 31t-31.5 82zM279 1511v131h520v-131h-520zM635 1315q0 51 32 81.5t79 30.5q45 0 77.5 -30.5t32.5 -81.5t-32.5 -82t-77.5 -31q-47 0 -79 31t-32 82z" />
<glyph unicode="&#x1e0;" horiz-adv-x="1357" d="M16 0q82 225 154 416.5t140.5 363.5t136 329t141.5 310h182q74 -154 141.5 -310.5t136 -328.5t140.5 -363.5t153 -416.5h-217q-35 92 -65.5 181t-63.5 181h-643l-129 -362h-207zM410 526h528q-66 178 -130.5 345t-133.5 321q-72 -154 -136.5 -321t-127.5 -345zM418 1839 v131h520v-131h-520zM565 1645q0 53 33 84t80 31t80 -31t33 -84t-33 -84t-80 -31t-80 31t-33 84z" />
<glyph unicode="&#x1e1;" horiz-adv-x="1069" d="M88 317q0 88 36 151.5t97.5 102.5t143 57.5t172.5 18.5q29 0 59.5 -3t58 -8t48 -9t28.5 -6v53q0 47 -10 93t-37 82t-73 57.5t-119 21.5q-94 0 -165 -13.5t-106 -27.5l-22 157q37 16 123 32t186 16q115 0 193.5 -30t127 -84t69 -129t20.5 -165v-666q-25 -4 -69 -11 t-99.5 -13t-120 -11.5t-127.5 -5.5q-90 0 -166 18.5t-131 58.5t-86 105.5t-31 157.5zM281 319q0 -102 65.5 -142t177.5 -40q68 0 120 3t87 12v317q-20 10 -66.5 17.5t-111.5 7.5q-43 0 -91 -6.5t-88 -26t-66.5 -53.5t-26.5 -89zM279 1511v131h520v-131h-520zM426 1317 q0 53 33 84t80 31t80 -31t33 -84t-33 -84t-80 -31t-80 31t-33 84z" />
<glyph unicode="&#x1e2;" horiz-adv-x="1914" d="M12 0q117 221 228.5 416.5t218 370t210 331t205.5 301.5h914v-166h-617v-428h543v-161h-543v-498h668v-166h-864v365h-559q-49 -90 -97.5 -181.5t-93.5 -183.5h-213zM508 526h467v738q-109 -147 -225.5 -334t-241.5 -404zM895 1628v147h582v-147h-582z" />
<glyph unicode="&#x1e3;" horiz-adv-x="1759" d="M90 317q0 88 36 151.5t97.5 102.5t143.5 57.5t172 18.5q29 0 59.5 -3t57 -8t47 -9t28.5 -6v53q0 47 -10 93t-37 82t-73 57.5t-119 21.5q-94 0 -165 -13.5t-106 -27.5l-22 157q37 16 122 32t183 16q141 0 224 -48.5t124 -134.5q68 92 160 137.5t192 45.5q213 0 329 -135.5 t116 -407.5q0 -16 -1 -27.5t-1 -21.5v-19h-729q12 -164 97 -251t261 -87q100 0 168.5 17.5t103.5 34.5l27 -160q-35 -18 -122 -39t-198 -21q-117 0 -203.5 28t-152.5 81q-20 -14 -54 -32.5t-81 -36t-105.5 -29t-128.5 -11.5q-102 0 -183 18.5t-138 59.5t-88 106.5t-31 157.5 zM283 319q0 -104 66.5 -143t185.5 -39q106 0 167.5 23.5t94.5 46.5q-31 57 -48.5 122.5t-19.5 139.5q-23 10 -65.5 17.5t-108.5 7.5q-43 0 -91 -6.5t-88 -26t-66.5 -53.5t-26.5 -89zM922 635h528q2 129 -64.5 212t-183.5 83q-66 0 -116 -25.5t-83.5 -66.5t-54 -94.5 t-26.5 -108.5zM575 1309v147h582v-147h-582z" />
<glyph unicode="&#x1e4;" horiz-adv-x="1437" d="M119 711q0 178 53 316t144.5 232.5t214 143.5t264.5 49q96 0 171.5 -12.5t130 -28.5t89.5 -32.5t47 -24.5l-64 -166q-57 41 -157.5 65.5t-206.5 24.5q-109 0 -197 -39t-149.5 -112.5t-95 -179t-33.5 -236.5q0 -127 29.5 -231.5t90 -179.5t149.5 -116t210 -41 q86 0 146.5 9.5t86.5 17.5v229h-225v150h225v196h199v-196h164v-150h-164v-364q-25 -8 -71 -18.5t-106 -20.5t-132 -17.5t-146 -7.5q-150 0 -272.5 49.5t-210.5 143.5t-136 231.5t-48 315.5z" />
<glyph unicode="&#x1e5;" horiz-adv-x="1208" d="M104 555q0 117 35 214t101.5 168t163 110.5t217.5 39.5q133 0 232 -19t167 -36v-401h160v-139h-160v-404q0 -246 -127 -356.5t-385 -110.5q-100 0 -189.5 16.5t-154.5 38.5l35 166q57 -23 140 -40t173 -17q170 0 244.5 67.5t74.5 215.5v38q-25 -16 -95 -41.5t-165 -25.5 q-96 0 -181 30.5t-148.5 95t-100.5 161t-37 229.5zM303 553q0 -92 23.5 -157.5t63.5 -108.5t92.5 -63.5t107.5 -20.5q76 0 139.5 21.5t99.5 49.5v218h-229v139h229v266q-29 8 -76.5 15.5t-129.5 7.5q-154 0 -237 -100.5t-83 -266.5z" />
<glyph unicode="&#x1e6;" horiz-adv-x="1376" d="M119 711q0 178 54 316t146.5 232.5t216 143.5t265.5 49q96 0 171 -12.5t128 -28.5t87 -32.5t46 -24.5l-64 -166q-59 39 -157.5 64.5t-200.5 25.5q-109 0 -198 -39t-151.5 -112.5t-97 -179t-34.5 -236.5q0 -127 29.5 -231.5t90 -179.5t149.5 -116t210 -41q86 0 146.5 9.5 t86.5 17.5v528h199v-663q-25 -8 -71 -18.5t-106 -20.5t-132 -17.5t-146 -7.5q-150 0 -272.5 49.5t-210.5 143.5t-136 231.5t-48 315.5zM491 1812l80 90l199 -180l199 180l80 -90l-279 -293z" />
<glyph unicode="&#x1e7;" horiz-adv-x="1183" d="M104 555q0 117 35 214t101.5 168t163 110.5t217.5 39.5q133 0 232 -19t167 -36v-950q0 -246 -127 -356.5t-385 -110.5q-100 0 -189.5 16.5t-154.5 38.5l35 166q57 -23 140 -40t173 -17q170 0 244.5 67.5t74.5 214.5v45q-25 -16 -95 -41.5t-165 -25.5q-96 0 -181 30.5 t-148.5 95t-100.5 161t-37 229.5zM303 553q0 -92 23.5 -157.5t63.5 -108.5t92.5 -63.5t107.5 -20.5q76 0 139.5 21.5t99.5 49.5v623q-29 8 -76.5 15.5t-129.5 7.5q-154 0 -237 -100.5t-83 -266.5zM313 1493l80 90l199 -180l199 180l80 -90l-279 -293z" />
<glyph unicode="&#x1e8;" horiz-adv-x="1288" d="M176 0v1419h199v-626q72 68 157.5 152.5t169.5 170.5t159 165t126 138h240q-63 -70 -143 -154.5t-167.5 -174t-173.5 -175.5t-161 -159q88 -61 186 -151.5t192.5 -193t177.5 -209t138 -202.5h-234q-61 96 -141 193.5t-169 186.5t-180 165t-177 129v-674h-199zM374 1812 l80 90l199 -180l199 180l80 -90l-279 -293z" />
<glyph unicode="&#x1e9;" horiz-adv-x="1069" d="M164 0v1556l190 33v-971l109 109q59 59 116.5 120.5t108.5 118t88 99.5h223q-47 -51 -102 -112.5t-114.5 -124t-120 -125t-113.5 -117.5q61 -47 130 -117t135.5 -150.5t125.5 -163.5t100 -155h-223q-43 72 -99 146.5t-117.5 143t-125 126t-121.5 96.5v-512h-190z M108 1878l60 92l192 -125l193 125l59 -92l-252 -195z" />
<glyph unicode="&#x1ea;" horiz-adv-x="1593" d="M119 711q0 182 54 321t147.5 232.5t217.5 140.5t263 47q137 0 259 -47t214 -140.5t146.5 -232.5t54.5 -321q0 -131 -28 -238.5t-79 -193.5t-120.5 -147.5t-153.5 -100.5q-47 -23 -86 -50.5t-70 -60.5q-29 -33 -44 -57.5t-15 -52.5q0 -59 82 -60q14 0 37.5 3t45.5 11 l15 -124q-23 -10 -58.5 -16.5t-76.5 -6.5q-115 0 -170.5 42t-55.5 114q0 47 27 91t61 81l13 12q6 6 14 12h-12q-139 0 -263 47t-217.5 140.5t-147.5 233t-54 321.5zM328 711q0 -129 32.5 -234.5t93 -179.5t147.5 -114t196 -40t194.5 40t146 114t93.5 179.5t33 234.5 t-33 234.5t-93.5 179t-146.5 113.5t-194 40q-109 0 -196 -40t-147.5 -113.5t-93 -179t-32.5 -234.5z" />
<glyph unicode="&#x1eb;" horiz-adv-x="1208" d="M104 532q0 125 37 228.5t103.5 177.5t159 114t200.5 40q109 0 201 -40t158.5 -114t103.5 -177.5t37 -228.5q0 -176 -71.5 -308t-194.5 -193q-88 -45 -152 -111q-29 -33 -44 -57.5t-15 -52.5q0 -59 82 -60q14 0 37.5 3t46.5 11l14 -124q-23 -10 -58.5 -16.5t-76.5 -6.5 q-115 0 -170.5 42t-55.5 114q0 47 27 91t62 81q6 6 16 15t18 15q-102 6 -187 49.5t-146.5 116t-96.5 171.5t-35 220zM303 532q0 -180 81 -285.5t220 -105.5t220 105.5t81 285.5t-81 286t-220 106t-220 -106t-81 -286z" />
<glyph unicode="&#x1ec;" horiz-adv-x="1593" d="M119 711q0 182 54 321t147.5 232.5t217.5 140.5t263 47q137 0 259 -47t214 -140.5t146.5 -232.5t54.5 -321q0 -131 -28 -238.5t-79 -193.5t-120.5 -147.5t-153.5 -100.5q-47 -23 -86 -50.5t-70 -60.5q-29 -33 -44 -57.5t-15 -52.5q0 -59 82 -60q14 0 37.5 3t45.5 11 l15 -124q-23 -10 -58.5 -16.5t-76.5 -6.5q-115 0 -170.5 42t-55.5 114q0 47 27 91t61 81l13 12q6 6 14 12h-12q-139 0 -263 47t-217.5 140.5t-147.5 233t-54 321.5zM328 711q0 -129 32.5 -234.5t93 -179.5t147.5 -114t196 -40t194.5 40t146 114t93.5 179.5t33 234.5 t-33 234.5t-93.5 179t-146.5 113.5t-194 40q-109 0 -196 -40t-147.5 -113.5t-93 -179t-32.5 -234.5zM506 1628v147h582v-147h-582z" />
<glyph unicode="&#x1ed;" horiz-adv-x="1208" d="M104 532q0 125 37 228.5t103.5 177.5t159 114t200.5 40q109 0 201 -40t158.5 -114t103.5 -177.5t37 -228.5q0 -176 -71.5 -308t-194.5 -193q-88 -45 -152 -111q-29 -33 -44 -57.5t-15 -52.5q0 -59 82 -60q14 0 37.5 3t46.5 11l14 -124q-23 -10 -58.5 -16.5t-76.5 -6.5 q-115 0 -170.5 42t-55.5 114q0 47 27 91t62 81q6 6 16 15t18 15q-102 6 -187 49.5t-146.5 116t-96.5 171.5t-35 220zM303 532q0 -180 81 -285.5t220 -105.5t220 105.5t81 285.5t-81 286t-220 106t-220 -106t-81 -286zM313 1309v147h582v-147h-582z" />
<glyph unicode="&#x1ee;" horiz-adv-x="1161" d="M51 72l60 164q23 -12 60.5 -29t84.5 -31t104.5 -24.5t120.5 -10.5q174 0 271.5 59.5t97.5 198.5q0 82 -34 136.5t-92 87t-137 46t-171 13.5h-39v119q51 51 107.5 112.5t109.5 123t100 118.5t80 98h-657v166h909v-119q-31 -45 -78 -104t-104.5 -123.5t-118.5 -130 t-119 -127.5q92 -10 175 -38.5t144.5 -79t97.5 -126t36 -176.5q0 -111 -42 -191.5t-117 -133t-181.5 -77t-235.5 -24.5q-78 0 -147.5 11.5t-124.5 27t-96 34t-64 30.5zM292 1812l80 90l199 -180l199 180l80 -90l-279 -293z" />
<glyph unicode="&#x1ef;" horiz-adv-x="964" d="M-6 -315l41 163q47 -23 131 -41t180 -18q166 0 254 72.5t88 206.5q0 80 -35 130t-91 78.5t-130 39t-151 10.5h-35v125q45 51 96 112.5t99 124t89 118.5t70 99h-559v160h795v-111q-29 -47 -71 -107.5t-91 -127t-103.5 -133t-105.5 -123.5q86 -12 163 -39t133 -73 t89 -116.5t33 -171.5q0 -111 -38 -193.5t-108.5 -138t-169 -83t-219.5 -27.5q-113 0 -208 18.5t-146 45.5zM135 1493l80 90l199 -180l199 180l80 -90l-279 -293z" />
<glyph unicode="&#x1f0;" horiz-adv-x="518" d="M-139 -356l24 155q20 -6 47 -10t50 -4q98 0 140 60.5t42 177.5v1042h190v-1040q0 -205 -93 -304.5t-271 -99.5q-25 0 -63.5 6.5t-65.5 16.5zM-15 1493l80 90l199 -180l199 180l80 -90l-279 -293z" />
<glyph unicode="&#x1f1;" horiz-adv-x="2641" d="M176 23v1376q84 20 187.5 27.5t189.5 7.5q174 0 319.5 -44t250 -133.5t161.5 -225.5t57 -320t-57 -320.5t-161.5 -225.5t-250 -133t-319.5 -44q-86 0 -189.5 7.5t-187.5 27.5zM375 168q18 -2 64 -4t130 -2q283 0 422 144.5t139 404.5t-139 404.5t-422 144.5 q-84 0 -130 -2.5t-64 -4.5v-1085zM1536 0v133q43 82 101 180.5t124.5 200.5t138.5 206.5t142.5 201t137 180.5t122.5 147h-730v170h973v-157q-47 -53 -109.5 -128t-132 -166t-143.5 -192.5t-144.5 -205t-134 -206t-114.5 -194.5h799v-170h-1030z" />
<glyph unicode="&#x1f2;" horiz-adv-x="2433" d="M176 23v1376q84 20 187.5 27.5t189.5 7.5q174 0 319.5 -44t250 -133.5t161.5 -225.5t57 -320t-57 -320.5t-161.5 -225.5t-250 -133t-319.5 -44q-86 0 -189.5 7.5t-187.5 27.5zM375 168q18 -2 64 -4t130 -2q283 0 422 144.5t139 404.5t-139 404.5t-422 144.5 q-84 0 -130 -2.5t-64 -4.5v-1085zM1542 0v127q49 90 120.5 198.5t150.5 216t153.5 203t130.5 160.5h-527v160h768v-143q-43 -47 -113.5 -133.5t-151.5 -190.5t-162 -219t-142 -219h586v-160h-813z" />
<glyph unicode="&#x1f3;" horiz-adv-x="2179" d="M104 532q0 123 32 225.5t93.5 176.5t150.5 115t204 41q92 0 162.5 -25t105.5 -47v538l190 33v-1558q-66 -18 -168 -37t-235 -19q-123 0 -221.5 39t-168 111t-107.5 175t-38 232zM303 532q0 -186 92 -287.5t246 -101.5q78 0 130 7.5t81 15.5v674q-35 29 -100.5 55.5 t-143.5 26.5q-82 0 -140 -30t-95 -82t-53.5 -124t-16.5 -154zM1288 0v127q49 90 120.5 198.5t150.5 216t153.5 203t130.5 160.5h-527v160h768v-143q-43 -47 -113.5 -133.5t-151.5 -190.5t-162 -219t-142 -219h586v-160h-813z" />
<glyph unicode="&#x1f4;" horiz-adv-x="1376" d="M119 711q0 178 54 316t146.5 232.5t216 143.5t265.5 49q96 0 171 -12.5t128 -28.5t87 -32.5t46 -24.5l-64 -166q-59 39 -157.5 64.5t-200.5 25.5q-109 0 -198 -39t-151.5 -112.5t-97 -179t-34.5 -236.5q0 -127 29.5 -231.5t90 -179.5t149.5 -116t210 -41q86 0 146.5 9.5 t86.5 17.5v528h199v-663q-25 -8 -71 -18.5t-106 -20.5t-132 -17.5t-146 -7.5q-150 0 -272.5 49.5t-210.5 143.5t-136 231.5t-48 315.5zM643 1593l262 315l123 -121l-289 -280z" />
<glyph unicode="&#x1f5;" horiz-adv-x="1183" d="M104 555q0 117 35 214t101.5 168t163 110.5t217.5 39.5q133 0 232 -19t167 -36v-950q0 -246 -127 -356.5t-385 -110.5q-100 0 -189.5 16.5t-154.5 38.5l35 166q57 -23 140 -40t173 -17q170 0 244.5 67.5t74.5 214.5v45q-25 -16 -95 -41.5t-165 -25.5q-96 0 -181 30.5 t-148.5 95t-100.5 161t-37 229.5zM303 553q0 -92 23.5 -157.5t63.5 -108.5t92.5 -63.5t107.5 -20.5q76 0 139.5 21.5t99.5 49.5v623q-29 8 -76.5 15.5t-129.5 7.5q-154 0 -237 -100.5t-83 -266.5zM465 1274l262 315l123 -121l-289 -280z" />
<glyph unicode="&#x1f6;" horiz-adv-x="2164" d="M176 0v1419h199v-594h694v594h199v-889q0 -201 62.5 -294t211.5 -93q150 0 212.5 93.5t62.5 293.5v535h196v-576q0 -113 -20.5 -208t-73.5 -164.5t-144.5 -108.5t-232.5 -39q-139 0 -230 39t-145.5 108.5t-76 165t-21.5 207.5v170h-694v-659h-199z" />
<glyph unicode="&#x1f7;" horiz-adv-x="1316" d="M176 -379v1718q37 14 87 32t108.5 31t124 22.5t133.5 9.5q281 0 435.5 -134.5t154.5 -392.5q0 -178 -66 -316t-179.5 -246.5t-267 -191.5t-331.5 -151v-381h-199zM375 188q133 59 248.5 122t200.5 146t134.5 194.5t49.5 264.5q0 166 -101.5 255.5t-275.5 89.5 q-98 0 -159.5 -14.5t-96.5 -26.5v-1031z" />
<glyph unicode="&#x1f8;" horiz-adv-x="1490" d="M176 0v1419h158q96 -102 205.5 -238.5t217 -280.5t203 -283.5t160.5 -247.5v1050h195v-1419h-166q-45 76 -103.5 170t-126 195.5t-140 206t-144.5 201.5t-139.5 183t-124.5 152v-1108h-195zM500 1787l123 121l262 -315l-96 -86z" />
<glyph unicode="&#x1f9;" d="M164 0v1034q66 16 174 34.5t250 18.5q127 0 211 -35.5t134 -100t70.5 -154.5t20.5 -199v-598h-190v557q0 98 -13.5 168t-44.5 113t-82 62.5t-127 19.5q-31 0 -63.5 -2.5t-62 -5.5t-53 -7t-34.5 -6v-899h-190zM348 1468l123 121l262 -315l-96 -86z" />
<glyph unicode="&#x1fa;" horiz-adv-x="1357" d="M16 0q76 211 144.5 393t133 345t128 312.5t131.5 295.5q-31 25 -49.5 61.5t-18.5 85.5q0 88 56.5 138t134.5 50q76 0 133 -50t57 -138q0 -47 -17.5 -83t-45.5 -60q68 -145 131 -295t127.5 -313.5t133.5 -347t146 -394.5h-217q-35 92 -65.5 182t-63.5 183h-643l-129 -365 h-207zM410 526h528q-66 180 -130.5 346t-133.5 320q-72 -154 -136.5 -320t-127.5 -346zM500 1810l309 160l57 -149l-323 -123zM578 1493q0 -47 28.5 -74.5t69.5 -27.5t69.5 27.5t28.5 74.5t-28.5 73.5t-69.5 26.5t-69.5 -26.5t-28.5 -73.5z" />
<glyph unicode="&#x1fb;" horiz-adv-x="1069" d="M88 317q0 88 36 151.5t97.5 102.5t143 57.5t172.5 18.5q29 0 59.5 -3t58 -8t48 -9t28.5 -6v53q0 47 -10 93t-37 82t-73 57.5t-119 21.5q-94 0 -165 -13.5t-106 -27.5l-22 157q37 16 123 32t186 16q115 0 193.5 -30t127 -84t69 -129t20.5 -165v-666q-25 -4 -69 -11 t-99.5 -13t-120 -11.5t-127.5 -5.5q-90 0 -166 18.5t-131 58.5t-86 105.5t-31 157.5zM281 319q0 -102 65.5 -142t177.5 -40q68 0 120 3t87 12v317q-20 10 -66.5 17.5t-111.5 7.5q-43 0 -91 -6.5t-88 -26t-66.5 -53.5t-26.5 -89zM349 1366q0 88 56 138t134 50q76 0 133 -50 t57 -138t-57 -138t-133 -50q-78 0 -134 50t-56 138zM363 1704l309 160l57 -150l-323 -123zM441 1366q0 -47 28.5 -74.5t69.5 -27.5t69.5 27.5t28.5 74.5t-28.5 73.5t-69.5 26.5t-69.5 -26.5t-28.5 -73.5z" />
<glyph unicode="&#x1fc;" horiz-adv-x="1914" d="M12 0q117 221 228.5 416.5t218 370t210 331t205.5 301.5h914v-166h-617v-428h543v-161h-543v-498h668v-166h-864v365h-559q-49 -90 -97.5 -181.5t-93.5 -183.5h-213zM508 526h467v738q-109 -147 -225.5 -334t-241.5 -404zM1028 1593l262 315l123 -121l-289 -280z" />
<glyph unicode="&#x1fd;" horiz-adv-x="1759" d="M90 317q0 88 36 151.5t97.5 102.5t143.5 57.5t172 18.5q29 0 59.5 -3t57 -8t47 -9t28.5 -6v53q0 47 -10 93t-37 82t-73 57.5t-119 21.5q-94 0 -165 -13.5t-106 -27.5l-22 157q37 16 122 32t183 16q141 0 224 -48.5t124 -134.5q68 92 160 137.5t192 45.5q213 0 329 -135.5 t116 -407.5q0 -16 -1 -27.5t-1 -21.5v-19h-729q12 -164 97 -251t261 -87q100 0 168.5 17.5t103.5 34.5l27 -160q-35 -18 -122 -39t-198 -21q-117 0 -203.5 28t-152.5 81q-20 -14 -54 -32.5t-81 -36t-105.5 -29t-128.5 -11.5q-102 0 -183 18.5t-138 59.5t-88 106.5t-31 157.5 zM283 319q0 -104 66.5 -143t185.5 -39q106 0 167.5 23.5t94.5 46.5q-31 57 -48.5 122.5t-19.5 139.5q-23 10 -65.5 17.5t-108.5 7.5q-43 0 -91 -6.5t-88 -26t-66.5 -53.5t-26.5 -89zM922 635h528q2 129 -64.5 212t-183.5 83q-66 0 -116 -25.5t-83.5 -66.5t-54 -94.5 t-26.5 -108.5zM729 1274l262 315l123 -121l-289 -280z" />
<glyph unicode="&#x1fe;" horiz-adv-x="1593" d="M119 711q0 182 54 321t147.5 232.5t217.5 140.5t263 47q217 0 385 -115l121 158l127 -94l-131 -170q80 -92 126 -222t46 -298q0 -182 -54.5 -321.5t-146.5 -233t-214 -140.5t-259 -47q-109 0 -206 28t-181 83l-119 -154l-127 94l127 164q-82 92 -129 223.5t-47 303.5z M328 711q0 -223 90 -367l653 846q-113 88 -274 88q-109 0 -196 -40t-147.5 -113.5t-93 -179t-32.5 -234.5zM526 227q109 -84 271 -84q109 0 194.5 40t146 114t93.5 179.5t33 234.5q0 109 -22.5 197.5t-63.5 160.5zM659 1593l262 315l123 -121l-289 -280z" />
<glyph unicode="&#x1ff;" horiz-adv-x="1208" d="M104 532q0 125 37 228.5t103.5 177.5t159 114t200.5 40q80 0 150.5 -22.5t130.5 -63.5l100 131l109 -82l-111 -144q57 -72 89 -167t32 -212q0 -127 -37 -229t-103.5 -176t-158.5 -114t-201 -40q-162 0 -280 84l-101 -131l-108 82l110 144q-57 72 -89 167.5t-32 212.5z M301 532q0 -133 43 -225l434 561q-74 57 -174 58q-141 0 -222 -106t-81 -288zM430 195q70 -55 174 -56q141 0 222 105.5t81 287.5q0 127 -45 224zM467 1274l262 315l123 -121l-289 -280z" />
<glyph unicode="&#x200;" horiz-adv-x="1357" d="M16 0q82 225 154 416.5t140.5 363.5t136 329t141.5 310h182q74 -154 141.5 -310.5t136 -328.5t140.5 -363.5t153 -416.5h-217q-35 92 -65.5 181t-63.5 181h-643l-129 -362h-207zM410 526h528q-66 178 -130.5 345t-133.5 321q-72 -154 -136.5 -321t-127.5 -345zM258 1794 l115 114l235 -327l-98 -74zM596 1794l115 114l235 -327l-98 -74z" />
<glyph unicode="&#x201;" horiz-adv-x="1069" d="M88 317q0 88 36 151.5t97.5 102.5t143 57.5t172.5 18.5q29 0 59.5 -3t58 -8t48 -9t28.5 -6v53q0 47 -10 93t-37 82t-73 57.5t-119 21.5q-94 0 -165 -13.5t-106 -27.5l-22 157q37 16 123 32t186 16q115 0 193.5 -30t127 -84t69 -129t20.5 -165v-666q-25 -4 -69 -11 t-99.5 -13t-120 -11.5t-127.5 -5.5q-90 0 -166 18.5t-131 58.5t-86 105.5t-31 157.5zM281 319q0 -102 65.5 -142t177.5 -40q68 0 120 3t87 12v317q-20 10 -66.5 17.5t-111.5 7.5q-43 0 -91 -6.5t-88 -26t-66.5 -53.5t-26.5 -89zM109 1475l115 114l235 -327l-98 -74z M447 1475l115 114l235 -327l-98 -74z" />
<glyph unicode="&#x202;" horiz-adv-x="1357" d="M16 0q82 225 154 416.5t140.5 363.5t136 329t141.5 310h182q74 -154 141.5 -310.5t136 -328.5t140.5 -363.5t153 -416.5h-217q-35 92 -65.5 181t-63.5 181h-643l-129 -362h-207zM410 526h528q-66 178 -130.5 345t-133.5 321q-72 -154 -136.5 -321t-127.5 -345zM398 1568 q-2 68 18.5 121t58 89t88 55.5t107.5 19.5t107.5 -19.5t88 -55.5t58 -89t18.5 -121h-122q-2 23 -9.5 49.5t-24 48t-45 36t-71.5 14.5t-71.5 -14.5t-45 -36t-23.5 -48t-9 -49.5h-123z" />
<glyph unicode="&#x203;" horiz-adv-x="1069" d="M88 317q0 88 36 151.5t97.5 102.5t143 57.5t172.5 18.5q29 0 59.5 -3t58 -8t48 -9t28.5 -6v53q0 47 -10 93t-37 82t-73 57.5t-119 21.5q-94 0 -165 -13.5t-106 -27.5l-22 157q37 16 123 32t186 16q115 0 193.5 -30t127 -84t69 -129t20.5 -165v-666q-25 -4 -69 -11 t-99.5 -13t-120 -11.5t-127.5 -5.5q-90 0 -166 18.5t-131 58.5t-86 105.5t-31 157.5zM281 319q0 -102 65.5 -142t177.5 -40q68 0 120 3t87 12v317q-20 10 -66.5 17.5t-111.5 7.5q-43 0 -91 -6.5t-88 -26t-66.5 -53.5t-26.5 -89zM263 1249q-2 68 18.5 121t58 89t88 55.5 t107.5 19.5t107.5 -19.5t88 -55.5t58 -89t18.5 -121h-122q-2 23 -9.5 49.5t-24 48t-45 36t-71.5 14.5t-71.5 -14.5t-45 -36t-23.5 -48t-9 -49.5h-123z" />
<glyph unicode="&#x204;" horiz-adv-x="1169" d="M176 0v1419h866v-170h-667v-422h594v-165h-594v-492h719v-170h-918zM225 1794l115 114l235 -327l-98 -74zM563 1794l115 114l235 -327l-98 -74z" />
<glyph unicode="&#x205;" horiz-adv-x="1144" d="M104 530q0 141 41 247t109 175.5t156 104.5t180 35q215 0 329.5 -134.5t114.5 -408.5v-32q0 -19 -2 -36h-729q12 -166 96 -252t263 -86q100 0 168.5 17.5t103.5 34.5l27 -160q-35 -18 -122 -39t-198 -21q-139 0 -240.5 42t-167 116t-97.5 175t-32 222zM307 635h529 q2 129 -64.5 212t-183.5 83q-66 0 -116 -25.5t-85 -66.5t-54.5 -94.5t-25.5 -108.5zM156 1475l115 114l235 -327l-98 -74zM494 1475l115 114l235 -327l-98 -74z" />
<glyph unicode="&#x206;" horiz-adv-x="1169" d="M176 0v1419h866v-170h-667v-422h594v-165h-594v-492h719v-170h-918zM336 1568q-2 68 18.5 121t58 89t88 55.5t107.5 19.5t107.5 -19.5t88 -55.5t58 -89t18.5 -121h-122q-2 23 -9.5 49.5t-24 48t-45 36t-71.5 14.5t-71.5 -14.5t-45 -36t-23.5 -48t-9 -49.5h-123z" />
<glyph unicode="&#x207;" horiz-adv-x="1144" d="M104 530q0 141 41 247t109 175.5t156 104.5t180 35q215 0 329.5 -134.5t114.5 -408.5v-32q0 -19 -2 -36h-729q12 -166 96 -252t263 -86q100 0 168.5 17.5t103.5 34.5l27 -160q-35 -18 -122 -39t-198 -21q-139 0 -240.5 42t-167 116t-97.5 175t-32 222zM307 635h529 q2 129 -64.5 212t-183.5 83q-66 0 -116 -25.5t-85 -66.5t-54.5 -94.5t-25.5 -108.5zM314 1249q-2 68 18.5 121t58 89t88 55.5t107.5 19.5t107.5 -19.5t88 -55.5t58 -89t18.5 -121h-122q-2 23 -9.5 49.5t-24 48t-45 36t-71.5 14.5t-71.5 -14.5t-45 -36t-23.5 -48t-9 -49.5 h-123z" />
<glyph unicode="&#x208;" horiz-adv-x="550" d="M176 0v1419h199v-1419h-199zM-152 1794l115 114l235 -327l-98 -74zM186 1794l115 114l235 -327l-98 -74z" />
<glyph unicode="&#x209;" horiz-adv-x="518" d="M164 0v1065h190v-1065h-190zM-168 1475l115 114l235 -327l-98 -74zM170 1475l115 114l235 -327l-98 -74z" />
<glyph unicode="&#x20a;" horiz-adv-x="550" d="M176 0v1419h199v-1419h-199zM9 1568q-2 68 18.5 121t58 89t88 55.5t107.5 19.5t107.5 -19.5t88 -55.5t58 -89t18.5 -121h-122q-2 23 -9.5 49.5t-24 48t-45 36t-71.5 14.5t-71.5 -14.5t-45 -36t-23.5 -48t-9 -49.5h-123z" />
<glyph unicode="&#x20b;" horiz-adv-x="518" d="M164 0v1065h190v-1065h-190zM-8 1249q-2 68 18.5 121t58 89t88 55.5t107.5 19.5t107.5 -19.5t88 -55.5t58 -89t18.5 -121h-122q-2 23 -9.5 49.5t-24 48t-45 36t-71.5 14.5t-71.5 -14.5t-45 -36t-23.5 -48t-9 -49.5h-123z" />
<glyph unicode="&#x20c;" horiz-adv-x="1593" d="M119 711q0 182 54 321t147.5 232.5t217.5 140.5t263 47q137 0 259 -47t214 -140.5t146.5 -232.5t54.5 -321t-54.5 -321.5t-146.5 -233t-214 -140.5t-259 -47q-139 0 -263 47t-217.5 140.5t-147.5 233t-54 321.5zM328 711q0 -129 32.5 -234.5t93 -179.5t147.5 -114 t196 -40t194.5 40t146 114t93.5 179.5t33 234.5t-33 234.5t-93.5 179t-146.5 113.5t-194 40q-109 0 -196 -40t-147.5 -113.5t-93 -179t-32.5 -234.5zM367 1794l115 114l235 -327l-98 -74zM705 1794l115 114l235 -327l-98 -74z" />
<glyph unicode="&#x20d;" horiz-adv-x="1208" d="M104 532q0 125 37 228.5t103.5 177.5t159 114t200.5 40q109 0 201 -40t158.5 -114t103.5 -177.5t37 -228.5q0 -127 -37 -229t-103.5 -176t-158.5 -114t-201 -40t-201 40t-158.5 114t-103.5 176t-37 229zM303 532q0 -180 81 -285.5t220 -105.5t220 105.5t81 285.5t-81 286 t-220 106t-220 -106t-81 -286zM174 1475l115 114l235 -327l-98 -74zM512 1475l115 114l235 -327l-98 -74z" />
<glyph unicode="&#x20e;" horiz-adv-x="1593" d="M119 711q0 182 54 321t147.5 232.5t217.5 140.5t263 47q137 0 259 -47t214 -140.5t146.5 -232.5t54.5 -321t-54.5 -321.5t-146.5 -233t-214 -140.5t-259 -47q-139 0 -263 47t-217.5 140.5t-147.5 233t-54 321.5zM328 711q0 -129 32.5 -234.5t93 -179.5t147.5 -114 t196 -40t194.5 40t146 114t93.5 179.5t33 234.5t-33 234.5t-93.5 179t-146.5 113.5t-194 40q-109 0 -196 -40t-147.5 -113.5t-93 -179t-32.5 -234.5zM525 1568q-2 68 18.5 121t58 89t88 55.5t107.5 19.5t107.5 -19.5t88 -55.5t58 -89t18.5 -121h-122q-2 23 -9.5 49.5t-24 48 t-45 36t-71.5 14.5t-71.5 -14.5t-45 -36t-23.5 -48t-9 -49.5h-123z" />
<glyph unicode="&#x20f;" horiz-adv-x="1208" d="M104 532q0 125 37 228.5t103.5 177.5t159 114t200.5 40q109 0 201 -40t158.5 -114t103.5 -177.5t37 -228.5q0 -127 -37 -229t-103.5 -176t-158.5 -114t-201 -40t-201 40t-158.5 114t-103.5 176t-37 229zM303 532q0 -180 81 -285.5t220 -105.5t220 105.5t81 285.5t-81 286 t-220 106t-220 -106t-81 -286zM332 1249q-2 68 18.5 121t58 89t88 55.5t107.5 19.5t107.5 -19.5t88 -55.5t58 -89t18.5 -121h-122q-2 23 -9.5 49.5t-24 48t-45 36t-71.5 14.5t-71.5 -14.5t-45 -36t-23.5 -48t-9 -49.5h-123z" />
<glyph unicode="&#x210;" horiz-adv-x="1288" d="M176 0v1399q84 20 187.5 27.5t189.5 7.5q299 0 455.5 -113t156.5 -336q0 -141 -74.5 -241.5t-220.5 -149.5q33 -41 83.5 -107.5t103.5 -147.5t105 -169t89 -170h-217q-41 78 -89 158t-97 152.5t-97.5 136t-86.5 110.5q-27 -2 -55 -2h-56h-178v-555h-199zM375 719h141 q102 0 184 10t138.5 39t87 81t30.5 138q0 80 -30.5 133.5t-82.5 84t-123 43t-151 12.5q-127 0 -194 -7v-534zM172 1794l115 114l235 -327l-98 -74zM510 1794l115 114l235 -327l-98 -74z" />
<glyph unicode="&#x211;" horiz-adv-x="790" d="M164 0v1020q68 25 168 46t225 21q25 0 56.5 -3t62.5 -8t56.5 -10t37.5 -9l-33 -166q-23 8 -75 19.5t-134 11.5q-53 0 -105 -11.5t-69 -15.5v-895h-190zM41 1475l115 114l235 -327l-98 -74zM379 1475l115 114l235 -327l-98 -74z" />
<glyph unicode="&#x212;" horiz-adv-x="1288" d="M176 0v1399q84 20 187.5 27.5t189.5 7.5q299 0 455.5 -113t156.5 -336q0 -141 -74.5 -241.5t-220.5 -149.5q33 -41 83.5 -107.5t103.5 -147.5t105 -169t89 -170h-217q-41 78 -89 158t-97 152.5t-97.5 136t-86.5 110.5q-27 -2 -55 -2h-56h-178v-555h-199zM375 719h141 q102 0 184 10t138.5 39t87 81t30.5 138q0 80 -30.5 133.5t-82.5 84t-123 43t-151 12.5q-127 0 -194 -7v-534zM330 1568q-2 68 18.5 121t58 89t88 55.5t107.5 19.5t107.5 -19.5t88 -55.5t58 -89t18.5 -121h-122q-2 23 -9.5 49.5t-24 48t-45 36t-71.5 14.5t-71.5 -14.5 t-45 -36t-23.5 -48t-9 -49.5h-123z" />
<glyph unicode="&#x213;" horiz-adv-x="790" d="M164 0v1020q68 25 168 46t225 21q25 0 56.5 -3t62.5 -8t56.5 -10t37.5 -9l-33 -166q-23 8 -75 19.5t-134 11.5q-53 0 -105 -11.5t-69 -15.5v-895h-190zM197 1249q-2 68 18.5 121t58 89t88 55.5t107.5 19.5t107.5 -19.5t88 -55.5t58 -89t18.5 -121h-122q-2 23 -9.5 49.5 t-24 48t-45 36t-71.5 14.5t-71.5 -14.5t-45 -36t-23.5 -48t-9 -49.5h-123z" />
<glyph unicode="&#x214;" horiz-adv-x="1409" d="M166 528v891h199v-868q0 -213 94 -309.5t246 -96.5q76 0 138 24t107 73t69.5 125.5t24.5 183.5v868h199v-891q0 -119 -31.5 -221t-98 -177t-168 -118t-240.5 -43t-242 43t-168.5 118t-97 177t-31.5 221zM274 1794l115 114l235 -327l-98 -74zM612 1794l115 114l235 -327 l-98 -74z" />
<glyph unicode="&#x215;" d="M152 467v598h190v-557q0 -195 61.5 -279t206.5 -84q31 0 64 2.5t61.5 5.5t52 6t33.5 7v899h191v-1034q-66 -16 -173.5 -35t-248.5 -19q-123 0 -207 36t-135 101.5t-73.5 154.5t-22.5 198zM152 1475l115 114l235 -327l-98 -74zM490 1475l115 114l235 -327l-98 -74z" />
<glyph unicode="&#x216;" horiz-adv-x="1409" d="M166 528v891h199v-868q0 -213 94 -309.5t246 -96.5q76 0 138 24t107 73t69.5 125.5t24.5 183.5v868h199v-891q0 -119 -31.5 -221t-98 -177t-168 -118t-240.5 -43t-242 43t-168.5 118t-97 177t-31.5 221zM432 1568q-2 68 18.5 121t58 89t88 55.5t107.5 19.5t107.5 -19.5 t88 -55.5t58 -89t18.5 -121h-122q-2 23 -9.5 49.5t-24 48t-45 36t-71.5 14.5t-71.5 -14.5t-45 -36t-23.5 -48t-9 -49.5h-123z" />
<glyph unicode="&#x217;" d="M152 467v598h190v-557q0 -195 61.5 -279t206.5 -84q31 0 64 2.5t61.5 5.5t52 6t33.5 7v899h191v-1034q-66 -16 -173.5 -35t-248.5 -19q-123 0 -207 36t-135 101.5t-73.5 154.5t-22.5 198zM310 1249q-2 68 18.5 121t58 89t88 55.5t107.5 19.5t107.5 -19.5t88 -55.5t58 -89 t18.5 -121h-122q-2 23 -9.5 49.5t-24 48t-45 36t-71.5 14.5t-71.5 -14.5t-45 -36t-23.5 -48t-9 -49.5h-123z" />
<glyph unicode="&#x218;" horiz-adv-x="1089" d="M68 70l59 163q47 -27 143.5 -59.5t235.5 -32.5q311 0 311 213q0 66 -27.5 112t-74.5 80t-107.5 58.5t-128.5 48.5q-78 27 -147.5 61t-120.5 80t-81 109.5t-30 153.5q0 186 127 290.5t351 104.5q129 0 234.5 -27.5t154.5 -60.5l-64 -162q-43 27 -128 52.5t-197 25.5 q-57 0 -106.5 -12.5t-86.5 -37t-58.5 -62.5t-21.5 -89q0 -57 22.5 -96t63.5 -68.5t95.5 -54t119.5 -49.5q92 -37 169 -74t133.5 -88t87 -121.5t30.5 -171.5q0 -186 -136 -286.5t-384 -100.5q-84 0 -154.5 11.5t-126 27t-95 33t-62.5 29.5zM322 -262q31 0 56.5 4t42 17.5 t25.5 40t9 71.5v27h182q2 -10 2 -24v-19q0 -66 -19.5 -111t-52 -73.5t-76.5 -42t-93 -13.5q-27 0 -48.5 2t-27.5 6v115z" />
<glyph unicode="&#x219;" horiz-adv-x="913" d="M82 35l35 164q33 -12 104.5 -37t190.5 -25q117 0 173 31t56 98q0 70 -55.5 111t-182.5 92q-61 25 -117.5 50.5t-97.5 60t-65.5 84t-24.5 120.5q0 141 104.5 224.5t284.5 83.5q45 0 90.5 -5.5t84 -12.5t68.5 -15t46 -15l-35 -163q-31 16 -96 33.5t-158 17.5 q-80 0 -139 -32t-59 -99q0 -35 13 -61.5t41 -48t69 -40t98 -39.5q76 -29 135.5 -56.5t101 -64t64.5 -89t23 -128.5q0 -147 -110 -223t-312 -76q-141 0 -221 24t-109 36zM217 -262q31 0 56.5 4t42 17.5t25.5 40t9 71.5v27h182q2 -10 2 -24v-19q0 -66 -19.5 -111t-52 -73.5 t-76.5 -42t-93 -13.5q-27 0 -48.5 2t-27.5 6v115z" />
<glyph unicode="&#x21a;" horiz-adv-x="1157" d="M33 1247v172h1091v-172h-446v-1247h-199v1247h-446zM360 -262q31 0 56.5 4t42 17.5t25.5 40t9 71.5v27h182q2 -10 2 -24v-19q0 -66 -19.5 -111t-52 -73.5t-76.5 -42t-93 -13.5q-27 0 -48.5 2t-27.5 6v115z" />
<glyph unicode="&#x21b;" horiz-adv-x="823" d="M152 412v950l190 33v-330h403v-160h-403v-491q0 -80 12.5 -132.5t37 -82t61 -42t86.5 -12.5q86 0 138 19.5t73 28.5l36 -158q-29 -14 -100.5 -36t-163.5 -22q-109 0 -179.5 28t-113.5 83t-60 136.5t-17 187.5zM254 -262q31 0 56.5 4t42 17.5t25.5 40t9 71.5v27h182 q2 -10 2 -24v-19q0 -66 -19.5 -111t-52 -73.5t-76.5 -42t-93 -13.5q-27 0 -48.5 2t-27.5 6v115z" />
<glyph unicode="&#x21c;" horiz-adv-x="1095" d="M33 1364q49 33 155.5 59.5t235.5 26.5q111 0 203 -25.5t158.5 -81t104.5 -140.5t38 -204q0 -55 -18.5 -110t-52.5 -104.5t-85 -90.5t-115 -67q156 -47 243 -164t87 -264q0 -164 -68.5 -274.5t-182 -178.5t-261 -96.5t-307.5 -28.5q-23 0 -61.5 1t-61.5 5l12 172 q16 -2 46 -3t59 -1q117 0 227.5 17.5t196.5 62.5t139 120t53 191q0 102 -46 169t-113.5 106t-147.5 54t-147 15h-78v160h61q82 0 157 18.5t132 56.5t91 96.5t34 135.5q0 135 -79 209t-220 74q-113 0 -198 -25.5t-128 -52.5z" />
<glyph unicode="&#x21d;" horiz-adv-x="892" d="M25 -217q51 2 114.5 8t128 18.5t127 33t110.5 55t77.5 85t29.5 119.5q0 78 -40 123t-96 68.5t-119.5 31t-110.5 7.5h-25v157q66 0 128.5 12.5t110.5 40t76.5 72.5t28.5 111q0 98 -60.5 152.5t-170.5 54.5q-92 0 -168 -21.5t-107 -38.5l-34 164q16 6 48.5 16.5t76 18.5 t90.5 14.5t94 6.5q90 0 168 -19.5t134 -64.5t89 -114t33 -167q0 -47 -16.5 -91t-46 -84t-71.5 -71.5t-92 -52.5q66 -14 117 -45t86 -74t52.5 -93t17.5 -105q0 -143 -69.5 -237.5t-180.5 -150t-248 -79t-270 -23.5z" />
<glyph unicode="&#x21e;" horiz-adv-x="1443" d="M176 0v1419h199v-592h694v592h199v-1419h-199v655h-694v-655h-199zM442 1812l80 90l199 -180l199 180l80 -90l-279 -293z" />
<glyph unicode="&#x21f;" horiz-adv-x="1169" d="M164 0v1556l190 33v-545q53 20 113.5 31.5t120.5 11.5q127 0 211 -35.5t134 -100t70.5 -154.5t20.5 -199v-598h-190v557q0 98 -13.5 168t-44.5 113t-82 62.5t-127 19.5q-31 0 -63.5 -4.5t-62 -9.5t-53 -11t-34.5 -10v-885h-190zM108 1878l60 92l192 -125l193 125l59 -92 l-252 -195z" />
<glyph unicode="&#x220;" horiz-adv-x="1384" d="M176 0v1382q41 12 97.5 23.5t123 22t140 16.5t151.5 6q147 0 247.5 -42t164 -118t91.5 -180t28 -227v-1262h-201v1210q0 233 -84 339t-268 106q-37 0 -78 -2t-80 -6t-74 -10.5t-57 -12.5v-1245h-201z" />
<glyph unicode="&#x221;" horiz-adv-x="1488" d="M104 532q0 123 32 225.5t93.5 176.5t150.5 115t204 41q92 0 162.5 -25t105.5 -47v538l190 33v-1442q41 29 86.5 44.5t98.5 15.5q61 0 111.5 -23.5t86 -63.5t55 -93.5t19.5 -110.5q0 -51 -17.5 -103.5t-54 -95.5t-94 -69.5t-137.5 -26.5q-117 0 -190.5 48t-110.5 132 l-156 -186l-98 86l215 260q-2 14 -2 29v30q-47 -16 -104.5 -27t-110.5 -11q-123 0 -221.5 37.5t-168 108.5t-107.5 173t-38 231zM303 532q0 -186 92 -284t246 -98q78 0 130 11t81 19v660q-35 29 -100.5 55.5t-143.5 26.5q-82 0 -140 -30t-95 -82t-53.5 -124t-16.5 -154z M1042 -18v-52q0 -74 41 -118.5t113 -44.5t109.5 44t37.5 105t-36.5 104t-108.5 43q-51 0 -86 -22t-70 -59z" />
<glyph unicode="&#x222;" horiz-adv-x="1372" d="M100 422q0 74 21.5 131t60.5 101t90.5 76t112.5 50q-98 35 -144 121t-46 203q0 98 9 167.5t25 147.5h193q-12 -72 -22.5 -143.5t-10.5 -142.5q0 -137 70.5 -210t226.5 -73t226.5 72.5t70.5 210.5q0 72 -10 143.5t-23 142.5h193q16 -78 25.5 -147.5t9.5 -167.5 q0 -117 -46.5 -203t-144.5 -121q59 -18 111.5 -50t90.5 -76t60.5 -102t22.5 -130q0 -201 -137.5 -316.5t-446.5 -115.5q-158 0 -268.5 29.5t-182 86t-104.5 136.5t-33 180zM307 422q0 -72 31 -123t83 -83t120.5 -46t144.5 -14t144.5 14t121 46t83 83t30.5 123 q0 70 -27.5 120t-79 82.5t-121 47t-151.5 14.5q-84 0 -152.5 -14.5t-120 -47t-79 -82.5t-27.5 -120z" />
<glyph unicode="&#x223;" horiz-adv-x="1210" d="M106 481q0 80 19.5 148.5t53.5 125t79 98.5t96 67q-80 35 -129 125t-49 206q0 86 9.5 169t21.5 169h186q-12 -72 -19 -144.5t-7 -144.5q0 -166 60 -239.5t179 -73.5q117 0 177.5 74t60.5 239q0 72 -7.5 145t-19.5 144h187q12 -86 21 -169t9 -169q0 -117 -49 -207 t-129 -124q51 -25 96 -67t79 -98.5t53.5 -125t19.5 -148.5q0 -115 -37 -208t-103.5 -159.5t-157.5 -103.5t-200 -37t-201 37t-158.5 103.5t-103.5 159.5t-37 208zM305 481q0 -158 81 -250t220 -92t220 92.5t81 249.5q0 158 -81 250t-220 92t-220 -92t-81 -250z" />
<glyph unicode="&#x224;" horiz-adv-x="1173" d="M68 0v133q43 82 101 180.5t124.5 201.5t138.5 207.5t142.5 201t137 181.5t124.5 148h-732v166h973v-157q-72 -78 -173 -207t-209.5 -280.5t-212 -311.5t-177.5 -297h793v-166q0 -94 -12.5 -166t-45 -120t-92 -72.5t-151.5 -24.5q-29 0 -67 5t-60 11l18 150q16 -6 44 -8 t44 -2q76 0 103.5 50t27.5 142v35h-839z" />
<glyph unicode="&#x225;" horiz-adv-x="964" d="M74 0v127q49 90 120.5 198.5t150.5 216t153.5 203t130.5 160.5h-527v160h768v-143q-43 -47 -113.5 -133.5t-151.5 -190.5t-162 -219t-142 -219h586v-160q0 -88 -10.5 -158.5t-40 -121t-85 -77t-145.5 -26.5q-29 0 -65.5 5t-59.5 11l17 140q12 -4 40.5 -7.5t45.5 -3.5 q78 0 104.5 51.5t26.5 143.5v43h-641z" />
<glyph unicode="&#x226;" horiz-adv-x="1357" d="M16 0q82 225 154 416.5t140.5 363.5t136 329t141.5 310h182q74 -154 141.5 -310.5t136 -328.5t140.5 -363.5t153 -416.5h-217q-35 92 -65.5 181t-63.5 181h-643l-129 -362h-207zM410 526h528q-66 178 -130.5 345t-133.5 321q-72 -154 -136.5 -321t-127.5 -345zM555 1701 q0 57 36 91t87 34t87 -33.5t36 -91.5q0 -57 -36 -91t-87 -34t-87 34t-36 91z" />
<glyph unicode="&#x227;" horiz-adv-x="1069" d="M88 317q0 88 36 151.5t97.5 102.5t143 57.5t172.5 18.5q29 0 59.5 -3t58 -8t48 -9t28.5 -6v53q0 47 -10 93t-37 82t-73 57.5t-119 21.5q-94 0 -165 -13.5t-106 -27.5l-22 157q37 16 123 32t186 16q115 0 193.5 -30t127 -84t69 -129t20.5 -165v-666q-25 -4 -69 -11 t-99.5 -13t-120 -11.5t-127.5 -5.5q-90 0 -166 18.5t-131 58.5t-86 105.5t-31 157.5zM281 319q0 -102 65.5 -142t177.5 -40q68 0 120 3t87 12v317q-20 10 -66.5 17.5t-111.5 7.5q-43 0 -91 -6.5t-88 -26t-66.5 -53.5t-26.5 -89zM416 1382q0 57 36 91t87 34t87 -33.5 t36 -91.5q0 -57 -36 -91t-87 -34t-87 34t-36 91z" />
<glyph unicode="&#x228;" horiz-adv-x="1169" d="M176 0v1419h866v-170h-667v-422h594v-165h-594v-492h719v-170h-373q-10 -18 -20.5 -38.5t-16.5 -37.5q59 -29 86 -62.5t27 -99.5q0 -23 -10.5 -49t-35 -48.5t-65.5 -37t-100 -14.5q-53 0 -97.5 8t-70.5 19l22 116q25 -8 52.5 -14t62.5 -6q74 0 74 47q0 23 -22.5 38 t-63.5 32l-15 6q10 29 27.5 69.5t34.5 71.5h-414z" />
<glyph unicode="&#x229;" horiz-adv-x="1144" d="M104 530q0 141 41 247t109 175.5t156 104.5t180 35q213 0 328.5 -135.5t115.5 -407.5q0 -16 -1 -27.5t-1 -21.5v-19h-729q12 -164 97 -251t262 -87q100 0 168.5 17.5t103.5 34.5l27 -160q-35 -16 -112 -35.5t-177 -24.5q-8 -14 -14.5 -27.5t-10.5 -23.5q59 -29 86 -62.5 t27 -99.5q0 -23 -10.5 -49t-35 -48.5t-65.5 -37t-100 -14.5q-53 0 -97 8t-71 19l22 116q25 -8 52.5 -14t62.5 -6q74 0 74 47q0 23 -22.5 38t-63.5 32l-14 6q8 25 22 59.5t29 63.5q-115 14 -197 60t-136 118.5t-80 166.5t-26 203zM307 635h529q2 129 -64.5 212t-183.5 83 q-66 0 -116 -25.5t-84 -66.5t-54.5 -94.5t-26.5 -108.5z" />
<glyph unicode="&#x22a;" horiz-adv-x="1593" d="M119 711q0 182 54 321t147.5 232.5t217.5 140.5t263 47q137 0 259 -47t214 -140.5t146.5 -232.5t54.5 -321t-54.5 -321.5t-146.5 -233t-214 -140.5t-259 -47q-139 0 -263 47t-217.5 140.5t-147.5 233t-54 321.5zM328 711q0 -129 32.5 -234.5t93 -179.5t147.5 -114 t196 -40t194.5 40t146 114t93.5 179.5t33 234.5t-33 234.5t-93.5 179t-146.5 113.5t-194 40q-109 0 -196 -40t-147.5 -113.5t-93 -179t-32.5 -234.5zM480 1643q0 51 31.5 81.5t78.5 30.5t79 -30.5t32 -81.5t-32 -82t-79 -31t-78.5 31t-31.5 82zM537 1839v131h520v-131h-520z M893 1643q0 51 32 81.5t79 30.5q45 0 77.5 -30.5t32.5 -81.5t-32.5 -82t-77.5 -31q-47 0 -79 31t-32 82z" />
<glyph unicode="&#x22b;" horiz-adv-x="1208" d="M104 532q0 125 37 228.5t103.5 177.5t159 114t200.5 40q109 0 201 -40t158.5 -114t103.5 -177.5t37 -228.5q0 -127 -37 -229t-103.5 -176t-158.5 -114t-201 -40t-201 40t-158.5 114t-103.5 176t-37 229zM303 532q0 -180 81 -285.5t220 -105.5t220 105.5t81 285.5t-81 286 t-220 106t-220 -106t-81 -286zM287 1315q0 51 31.5 81.5t78.5 30.5t79 -30.5t32 -81.5t-32 -82t-79 -31t-78.5 31t-31.5 82zM344 1511v131h520v-131h-520zM700 1315q0 51 32 81.5t79 30.5q45 0 77.5 -30.5t32.5 -81.5t-32.5 -82t-77.5 -31q-47 0 -79 31t-32 82z" />
<glyph unicode="&#x22c;" horiz-adv-x="1593" d="M119 711q0 182 54 321t147.5 232.5t217.5 140.5t263 47q137 0 259 -47t214 -140.5t146.5 -232.5t54.5 -321t-54.5 -321.5t-146.5 -233t-214 -140.5t-259 -47q-139 0 -263 47t-217.5 140.5t-147.5 233t-54 321.5zM328 711q0 -129 32.5 -234.5t93 -179.5t147.5 -114 t196 -40t194.5 40t146 114t93.5 179.5t33 234.5t-33 234.5t-93.5 179t-146.5 113.5t-194 40q-109 0 -196 -40t-147.5 -113.5t-93 -179t-32.5 -234.5zM484 1569q8 25 25.5 55.5t42 56t57 44t73.5 18.5q37 0 72 -12t63 -29q35 -18 56.5 -25.5t44.5 -7.5q35 0 61.5 28t40.5 56 l92 -41q-8 -25 -25.5 -54.5t-42 -55t-57 -44t-73.5 -18.5q-37 0 -72 12.5t-63 28.5q-35 16 -56.5 24.5t-44.5 8.5q-35 0 -61.5 -28.5t-40.5 -57.5zM537 1839v131h520v-131h-520z" />
<glyph unicode="&#x22d;" horiz-adv-x="1208" d="M104 532q0 125 37 228.5t103.5 177.5t159 114t200.5 40q109 0 201 -40t158.5 -114t103.5 -177.5t37 -228.5q0 -127 -37 -229t-103.5 -176t-158.5 -114t-201 -40t-201 40t-158.5 114t-103.5 176t-37 229zM303 532q0 -180 81 -285.5t220 -105.5t220 105.5t81 285.5t-81 286 t-220 106t-220 -106t-81 -286zM291 1241q8 25 25.5 55.5t42 56t57 44t73.5 18.5q37 0 72 -12t63 -29q35 -18 56.5 -25.5t44.5 -7.5q35 0 61.5 28t40.5 56l92 -41q-8 -25 -25.5 -54.5t-42 -55t-57 -44t-73.5 -18.5q-37 0 -72 12.5t-63 28.5q-35 16 -56.5 24.5t-44.5 8.5 q-35 0 -61.5 -28.5t-40.5 -57.5zM344 1511v131h520v-131h-520z" />
<glyph unicode="&#x22e;" horiz-adv-x="1593" d="M119 711q0 182 54 321t147.5 232.5t217.5 140.5t263 47q137 0 259 -47t214 -140.5t146.5 -232.5t54.5 -321t-54.5 -321.5t-146.5 -233t-214 -140.5t-259 -47q-139 0 -263 47t-217.5 140.5t-147.5 233t-54 321.5zM328 711q0 -129 32.5 -234.5t93 -179.5t147.5 -114 t196 -40t194.5 40t146 114t93.5 179.5t33 234.5t-33 234.5t-93.5 179t-146.5 113.5t-194 40q-109 0 -196 -40t-147.5 -113.5t-93 -179t-32.5 -234.5zM674 1736q0 57 36 91t87 34t87 -33.5t36 -91.5q0 -57 -36 -91t-87 -34t-87 34t-36 91z" />
<glyph unicode="&#x22f;" horiz-adv-x="1208" d="M104 532q0 125 37 228.5t103.5 177.5t159 114t200.5 40q109 0 201 -40t158.5 -114t103.5 -177.5t37 -228.5q0 -127 -37 -229t-103.5 -176t-158.5 -114t-201 -40t-201 40t-158.5 114t-103.5 176t-37 229zM303 532q0 -180 81 -285.5t220 -105.5t220 105.5t81 285.5t-81 286 t-220 106t-220 -106t-81 -286zM481 1382q0 57 36 91t87 34t87 -33.5t36 -91.5q0 -57 -36 -91t-87 -34t-87 34t-36 91z" />
<glyph unicode="&#x230;" horiz-adv-x="1593" d="M119 711q0 182 54 321t147.5 232.5t217.5 140.5t263 47q137 0 259 -47t214 -140.5t146.5 -232.5t54.5 -321t-54.5 -321.5t-146.5 -233t-214 -140.5t-259 -47q-139 0 -263 47t-217.5 140.5t-147.5 233t-54 321.5zM328 711q0 -129 32.5 -234.5t93 -179.5t147.5 -114 t196 -40t194.5 40t146 114t93.5 179.5t33 234.5t-33 234.5t-93.5 179t-146.5 113.5t-194 40q-109 0 -196 -40t-147.5 -113.5t-93 -179t-32.5 -234.5zM537 1839v131h520v-131h-520zM684 1645q0 53 33 84t80 31t80 -31t33 -84t-33 -84t-80 -31t-80 31t-33 84z" />
<glyph unicode="&#x231;" horiz-adv-x="1208" d="M104 532q0 125 37 228.5t103.5 177.5t159 114t200.5 40q109 0 201 -40t158.5 -114t103.5 -177.5t37 -228.5q0 -127 -37 -229t-103.5 -176t-158.5 -114t-201 -40t-201 40t-158.5 114t-103.5 176t-37 229zM303 532q0 -180 81 -285.5t220 -105.5t220 105.5t81 285.5t-81 286 t-220 106t-220 -106t-81 -286zM344 1511v131h520v-131h-520zM491 1317q0 53 33 84t80 31t80 -31t33 -84t-33 -84t-80 -31t-80 31t-33 84z" />
<glyph unicode="&#x232;" horiz-adv-x="1224" d="M12 1419h234q78 -168 174 -341t198 -333q100 160 196.5 333t176.5 341h221q-111 -205 -235.5 -416.5t-263.5 -429.5v-573h-199v569q-141 219 -266 432t-236 418zM321 1628v147h582v-147h-582z" />
<glyph unicode="&#x233;" horiz-adv-x="1017" d="M4 -352l35 153q23 -10 58.5 -19t70.5 -9q113 0 176.5 50t114.5 163q-129 246 -241 521t-185 558h205q23 -92 54.5 -198.5t70 -219t84 -225.5t94.5 -217q78 215 135 426t108 434h197q-74 -301 -164 -578.5t-194 -519.5q-41 -92 -85 -158.5t-97.5 -109.5t-120 -63.5 t-150.5 -20.5q-23 0 -47.5 3t-48 8t-43 11.5t-27.5 10.5zM244 1309v147h582v-147h-582z" />
<glyph unicode="&#x234;" horiz-adv-x="839" d="M-8 -299l213 258q-2 16 -2 33v33v1531l190 33v-1442q41 29 86 44.5t99 15.5q61 0 111 -23.5t86 -63.5t55.5 -93.5t19.5 -110.5q0 -51 -17.5 -103.5t-54.5 -95.5t-94 -69.5t-137 -26.5q-117 0 -190.5 48t-112.5 132l-154 -186zM393 -18v-52q0 -74 41 -118.5t113 -44.5 t109.5 44t37.5 105t-36.5 104t-108.5 43q-51 0 -86 -22t-70 -59z" />
<glyph unicode="&#x235;" horiz-adv-x="1470" d="M164 0v1034q66 16 174 34.5t250 18.5q127 0 211 -35.5t134 -100t70.5 -154.5t20.5 -199v-451q41 29 86 44.5t98 15.5q61 0 111.5 -23.5t86.5 -63.5t55.5 -93.5t19.5 -110.5q0 -51 -17.5 -103.5t-54.5 -95.5t-94.5 -69.5t-136.5 -26.5q-117 0 -191 48t-113 132l-153 -186 l-98 86l213 258q-2 16 -2 33v33v532q0 98 -13.5 168t-44.5 113t-82 62.5t-127 19.5q-31 0 -63.5 -2.5t-62 -5.5t-53 -7t-34.5 -6v-899h-190zM1024 -18v-52q0 -74 41 -118.5t113 -44.5t109.5 44t37.5 105t-37 104t-108 43q-51 0 -86 -22t-70 -59z" />
<glyph unicode="&#x236;" horiz-adv-x="839" d="M-8 -299l213 258q-2 16 -2 33v33v1337l190 33v-330h373v-160h-373v-758q41 29 86 44.5t99 15.5q61 0 111 -23.5t86 -63.5t55.5 -93.5t19.5 -110.5q0 -51 -17.5 -103.5t-54.5 -95.5t-94 -69.5t-137 -26.5q-117 0 -190.5 48t-112.5 132l-154 -186zM393 -18v-52 q0 -74 41 -118.5t113 -44.5t109.5 44t37.5 105t-36.5 104t-108.5 43q-51 0 -86 -22t-70 -59z" />
<glyph unicode="&#x237;" horiz-adv-x="518" d="M-139 -356l24 155q20 -6 47 -10t50 -4q98 0 140 60.5t42 177.5v1042h190v-1040q0 -205 -93 -304.5t-271 -99.5q-25 0 -63.5 6.5t-65.5 16.5z" />
<glyph unicode="&#x238;" horiz-adv-x="1894" d="M104 532q0 123 32 225.5t93.5 176.5t150.5 115t204 41q92 0 162.5 -25t105.5 -47v538l190 33v-571q35 23 106 47.5t163 24.5q115 0 204 -41t150 -115t93 -176.5t32 -225.5q0 -129 -38 -232t-107.5 -175t-168 -111t-221.5 -39q-92 0 -171.5 16.5t-137.5 33.5 q-57 -16 -136 -33t-171 -17q-123 0 -221.5 39t-168 111t-107.5 175t-38 232zM303 532q0 -186 92 -287.5t246 -101.5q78 0 130 9.5t81 17.5v670q-35 29 -100.5 55.5t-143.5 26.5q-82 0 -140 -30t-95 -82t-53.5 -124t-16.5 -154zM1042 170q29 -8 81.5 -17.5t129.5 -9.5 q154 0 246 101.5t92 287.5q0 82 -16 154t-53 124t-95.5 82t-140.5 30q-78 0 -143.5 -27t-100.5 -55v-670z" />
<glyph unicode="&#x239;" horiz-adv-x="1894" d="M104 530q0 129 38 232.5t107.5 175.5t168 110.5t221.5 38.5q92 0 171 -16t136 -33q57 16 137 32.5t172 16.5q123 0 221.5 -38.5t168 -110.5t107.5 -175.5t38 -232.5q0 -121 -32 -223t-93 -176t-150.5 -115t-203.5 -41q-92 0 -163 25t-106 47v-426h-190v426 q-35 -23 -105.5 -47.5t-162.5 -24.5q-115 0 -204 41t-150.5 115t-93.5 176t-32 223zM303 530q0 -82 16.5 -152.5t53.5 -122.5t95 -82t140 -30q78 0 143.5 27t100.5 55v668q-29 8 -77 16.5t-134 8.5q-154 0 -246 -101t-92 -287zM1042 225q35 -29 100.5 -55.5t143.5 -26.5 q82 0 140.5 30t95.5 82t53 123t16 152q0 186 -92 287t-246 101q-86 0 -134 -8.5t-77 -16.5v-668z" />
<glyph unicode="&#x23a;" horiz-adv-x="1357" d="M20 0q82 225 154 416.5t140.5 363.5t136 329t141.5 310h176l96 -209l144 381l141 -49l-199 -530q92 -217 185.5 -462t203.5 -550h-206q-35 92 -66 182t-63 183h-299l-213 -572l-140 51l195 521h-195l-129 -365h-203zM406 516h198l170 457l-96 231q-72 -160 -140.5 -334 t-131.5 -354zM762 516h188q-23 61 -46 123.5t-48 126.5z" />
<glyph unicode="&#x23b;" horiz-adv-x="1312" d="M119 711q0 178 53 316t145.5 232.5t213 143.5t255.5 49q53 0 101.5 -4t89.5 -12l65 155l146 -61l-58 -133q47 -16 76 -30.5t41 -23.5l-59 -163q-18 10 -50 24.5t-75 28.5l-442 -1057q80 -33 188 -33q135 0 228 31t139 53l51 -164q-14 -10 -52 -26.5t-95.5 -31.5 t-132.5 -25.5t-161 -10.5q-131 0 -237 37l-88 -213l-146 62l93 219q-135 90 -212 250t-77 387zM330 711q0 -145 39 -260t116 -191l422 1008q-57 10 -110 10q-104 0 -190.5 -39t-148 -112.5t-95 -179t-33.5 -236.5z" />
<glyph unicode="&#x23c;" horiz-adv-x="976" d="M104 530q0 123 36 225.5t101.5 177.5t161 117t211.5 42q18 0 37 -1t39 -4l55 173l127 -43l-49 -156q27 -8 51.5 -16.5t51.5 -18.5l-52 -160q-23 10 -48 20.5t-54 18.5l-240 -747q49 -14 119 -15q76 0 141.5 15.5t100.5 31.5l27 -159q-16 -10 -48 -19.5t-73 -17.5 t-86 -13.5t-86 -5.5q-76 0 -148 17l-51 -164l-127 43l53 166q-125 68 -187.5 195.5t-62.5 297.5zM303 530q0 -102 25.5 -181t83.5 -130l225 705h-4q-160 0 -245 -100.5t-85 -293.5z" />
<glyph unicode="&#x23d;" horiz-adv-x="1089" d="M39 664v153h164v602h198v-602h318v-153h-318v-492h656v-172h-854v664h-164z" />
<glyph unicode="&#x23e;" horiz-adv-x="1269" d="M33 1253v166h1022l94 135l129 -84l-602 -874v-596h-193v350l-299 -432l-129 82l426 616v637h-448zM672 862l270 391h-270v-391z" />
<glyph unicode="&#x23f;" horiz-adv-x="913" d="M72 53l57 144q25 -10 94.5 -35t188.5 -25q229 0 229 133q0 35 -13.5 60.5t-42 48t-73.5 44t-109 46.5q-61 25 -117.5 50.5t-97.5 60t-65.5 84t-24.5 120.5q0 141 104.5 224.5t284.5 83.5q45 0 90.5 -5.5t84 -12.5t68.5 -15t46 -15l-35 -163q-31 16 -96 33.5t-158 17.5 q-80 0 -139 -32t-59 -99q0 -37 13 -62.5t41 -46t69 -40t98 -40.5q74 -29 133 -55.5t101 -62t64.5 -87t22.5 -126.5q0 -74 -28.5 -126.5t-79.5 -86t-122 -49t-155 -15.5q-16 0 -52 2t-52 2l92 -110q41 -49 100.5 -83t151.5 -34q18 0 44 2t50 6l19 -154q-27 -6 -66 -10t-63 -4 q-68 0 -115 10.5t-84 32t-69.5 52t-71.5 71.5q-35 35 -66 74t-61.5 75.5t-62 67.5t-68.5 49z" />
<glyph unicode="&#x240;" horiz-adv-x="960" d="M78 0v127q49 90 120.5 198.5t148.5 216t151.5 203t130.5 160.5h-527v160h768v-143q-43 -47 -113.5 -131t-151.5 -189.5t-164 -223.5t-150 -231q47 -10 88 -29.5t73.5 -42t59.5 -46t45 -41.5q35 -35 68.5 -70t69.5 -62.5t76 -46t89 -18.5q8 0 34 1t50 5l21 -162 q-27 -6 -66 -10t-63 -4q-68 0 -118 17.5t-91 45t-78 64.5l-78 78q-23 23 -56.5 52.5t-76.5 57t-98.5 46t-120.5 18.5h-41z" />
<glyph unicode="&#x241;" horiz-adv-x="976" d="M29 1352q25 16 66.5 33.5t96 33t116 24.5t124.5 9q236 0 359.5 -97.5t123.5 -267.5q0 -78 -20.5 -134t-56 -99t-83.5 -77t-104 -68q-53 -35 -91 -64t-61.5 -61.5t-34.5 -75.5t-11 -105v-403h-199v428q0 84 16.5 144.5t50 108.5t84 86t117.5 77q39 23 73 45t59.5 50 t41 61.5t15.5 76.5q0 51 -21.5 89t-60.5 62.5t-90.5 37t-110.5 12.5q-113 0 -203 -32t-133 -58z" />
<glyph unicode="&#x242;" horiz-adv-x="854" d="M20 1001q20 12 60.5 29t91.5 30t107.5 22.5t109.5 9.5q201 0 306.5 -79t105.5 -218q0 -63 -18.5 -110.5t-48 -83.5t-68.5 -64.5t-82 -55.5q-37 -25 -70 -48t-56.5 -50t-36.5 -59.5t-13 -75.5v-248h-183v262q0 68 17.5 117t48.5 89t74 70.5t94 61.5q59 35 106 79t47 105 q0 78 -65.5 111t-161.5 33q-41 0 -86 -8.5t-87 -20.5t-77 -27.5t-55 -27.5z" />
<glyph unicode="&#x243;" horiz-adv-x="1343" d="M39 330v143h164v926q41 10 90 16t99 10.5t100.5 6.5t93.5 2q123 0 230.5 -18.5t187 -62.5t126 -116t46.5 -176q0 -117 -58.5 -191.5t-156.5 -109.5q131 -37 204.5 -117t73.5 -227q0 -213 -156.5 -320.5t-496.5 -107.5q-43 0 -93.5 2t-100.5 6t-99 10t-90 17v307h-164z M397 158q23 -2 54 -4q27 -2 63 -2h84q88 0 167 11t138.5 40.5t95 81t35.5 129.5q0 70 -26.5 119t-76.5 77.5t-120 42t-156 13.5h-258v-193h244v-143h-244v-172zM397 817h203q84 0 152.5 11.5t118 38t76 70.5t26.5 110q0 61 -30 103t-81 67.5t-119.5 38t-144.5 12.5 q-47 0 -84 -1t-63 -3q-31 -2 -54 -4v-443z" />
<glyph unicode="&#x244;" horiz-adv-x="1462" d="M39 698v154h154v567h198v-567h680v567h199v-567h153v-154h-153v-170q0 -119 -32 -221t-98.5 -177t-168 -118t-240.5 -43t-241.5 43t-168 118t-97 177.5t-31.5 220.5v170h-154zM391 551q0 -213 94.5 -309.5t245.5 -96.5q76 0 138.5 24t107.5 73t69.5 125.5t24.5 183.5v147 h-680v-147z" />
<glyph unicode="&#x245;" horiz-adv-x="1335" d="M16 0q76 225 148 416.5t139.5 363.5t134 329t135.5 310h187q70 -154 136.5 -310.5t135 -328.5t139 -363.5t148.5 -416.5h-219q-111 324 -217.5 623t-218.5 561q-113 -260 -219.5 -560t-215.5 -624h-213z" />
<glyph unicode="&#x246;" horiz-adv-x="1218" d="M176 0v1419h774l60 142l143 -54l-287 -684h144v-157h-211l-209 -502h524v-164h-594l-100 -242l-141 54l77 188h-180zM375 164h51l209 502h-260v-502zM375 823h325l183 434h-508v-434z" />
<glyph unicode="&#x247;" d="M104 530q0 141 42 247t112 175.5t160 104.5t188 35q20 0 39 -1t37 -4l55 173l127 -43l-53 -164q254 -106 254 -504q0 -25 -1 -41t-1 -23h-434l-105 -325q33 -10 73 -15.5t85 -5.5q102 0 175 16.5t110 32.5q6 -41 14 -77.5t14 -77.5q-41 -18 -132 -38t-201 -20 q-102 0 -189 23l-53 -170l-127 43l55 174q-127 72 -185.5 197.5t-58.5 287.5zM299 485q12 -172 109 -262l84 262h-193zM305 625h232l98 309q-76 6 -135.5 -17.5t-101.5 -67.5t-65.5 -102.5t-27.5 -121.5zM674 625h194q0 100 -27.5 163.5t-80.5 104.5z" />
<glyph unicode="&#x248;" horiz-adv-x="1054" d="M10 84l78 158q43 -31 111.5 -65t171.5 -34q147 0 214.5 75t67.5 257v189h-297v153h297v602h199v-602h164v-153h-164v-207q0 -102 -21.5 -190.5t-76 -155t-145.5 -104.5t-228 -38q-70 0 -128 11.5t-105.5 29t-82.5 37t-55 37.5z" />
<glyph unicode="&#x249;" horiz-adv-x="595" d="M-86 -360l25 155q20 -6 46.5 -10t49.5 -4q98 0 140 60.5t42 176.5v474h-188v143h188v430h191v-430h159v-143h-159v-472q0 -205 -92.5 -304t-272.5 -99q-25 0 -63.5 6.5t-65.5 16.5zM188 1382q0 57 36 91t87 34t87 -33.5t36 -91.5q0 -57 -36 -91t-87 -34t-87 34t-36 91z " />
<glyph unicode="&#x24a;" horiz-adv-x="1607" d="M119 711q0 182 54 321t147.5 232.5t217.5 140.5t263 47q137 0 258 -47t212 -140.5t144 -232.5t53 -321v-746q0 -92 26 -142t101 -50q16 0 44 2t44 8l19 -150q-23 -6 -60.5 -11t-66.5 -5q-92 0 -151.5 24.5t-93.5 72.5t-46 120t-12 166v203q-33 -53 -85 -96.5t-115.5 -74 t-133.5 -47t-137 -16.5q-139 0 -263 47t-217.5 140.5t-147.5 233t-54 321.5zM328 711q0 -129 32.5 -234.5t93 -179.5t147.5 -114t196 -40q106 0 193 40t147.5 114t93.5 179.5t33 234.5t-33 234.5t-93.5 179t-147.5 113.5t-193 40q-109 0 -196 -40t-147.5 -113.5t-93 -179 t-32.5 -234.5z" />
<glyph unicode="&#x24b;" horiz-adv-x="1206" d="M104 530q0 129 38 232.5t107.5 175.5t168 110.5t221.5 38.5q133 0 234.5 -19t168.5 -36v-1067q0 -92 30 -142t106 -50q16 0 43.5 2t44.5 8l18 -150q-23 -6 -60.5 -11t-66.5 -5q-92 0 -151.5 24.5t-93 72.5t-47 120t-13.5 166v47q-35 -23 -105.5 -47.5t-162.5 -24.5 q-115 0 -204 41t-150.5 115t-93.5 176t-32 223zM303 530q0 -82 16.5 -152.5t53.5 -122.5t95 -82t140 -30q78 0 143.5 27t100.5 55v672q-29 8 -77 14.5t-134 6.5q-154 0 -246 -101t-92 -287z" />
<glyph unicode="&#x24c;" horiz-adv-x="1314" d="M39 563v154h164v682q84 20 187.5 27.5t189.5 7.5q299 0 455.5 -113t156.5 -336q0 -139 -78 -238.5t-221 -148.5q35 -43 86 -110.5t104.5 -148.5t105.5 -169t89 -170h-217q-41 78 -89 159t-97.5 154.5t-97.5 138t-87 111.5h-289v-563h-198v563h-164zM401 717h181 q94 0 167.5 11t126 42t80 83t27.5 134q0 80 -30.5 133.5t-83 84t-123 43t-150.5 12.5q-47 0 -83 -1.5t-60 -3.5q-29 -2 -52 -2v-536z" />
<glyph unicode="&#x24d;" horiz-adv-x="815" d="M29 420v143h151v457q68 25 168.5 46t224.5 21q25 0 57 -3t62.5 -8t56 -10t37.5 -9l-32 -166q-23 8 -75 19.5t-134 11.5q-53 0 -105.5 -11.5t-68.5 -15.5v-332h299v-143h-299v-420h-191v420h-151z" />
<glyph unicode="&#x24e;" horiz-adv-x="1265" d="M33 965v149h170q-45 78 -87 153.5t-83 151.5h225q35 -76 74 -151.5t80 -153.5h450q41 78 81 153.5t77 151.5h213q-41 -76 -84 -151.5t-88 -153.5h172v-149h-258l-119 -197q-59 -98 -123 -197v-571h-198v567q-66 100 -126.5 199.5t-119.5 198.5h-256zM494 965 q37 -66 72.5 -125.5t72.5 -118.5q35 59 72 118.5t71 125.5h-288z" />
<glyph unicode="&#x24f;" horiz-adv-x="1058" d="M29 -346l34 153q23 -10 59 -19t71 -9q111 0 175 47t113 160q-66 123 -126 253t-113 267h-207v139h153q-78 217 -133 420h199q23 -92 54.5 -199.5t70.5 -220.5h330q29 104 54 207.5t50 212.5h191q-29 -111 -56.5 -213t-58.5 -207h135v-139h-180q-47 -147 -96.5 -281.5 t-102.5 -257.5q-41 -92 -84 -157.5t-96 -107.5t-118.5 -61.5t-151.5 -19.5q-23 0 -47.5 3t-48 8.5t-43 11.5t-27.5 10zM428 506q63 -172 135 -318q57 156 105 318h-240z" />
<glyph unicode="&#x292;" horiz-adv-x="964" d="M-6 -315l41 163q47 -23 131 -41t180 -18q166 0 254 72.5t88 206.5q0 80 -35 130t-91 78.5t-130 39t-151 10.5h-35v125q45 51 96 112.5t99 124t89 118.5t70 99h-559v160h795v-111q-29 -47 -71 -107.5t-91 -127t-103.5 -133t-105.5 -123.5q86 -12 163 -39t133 -73 t89 -116.5t33 -171.5q0 -111 -38 -193.5t-108.5 -138t-169 -83t-219.5 -27.5q-113 0 -208 18.5t-146 45.5z" />
<glyph unicode="&#x2bc;" horiz-adv-x="770" d="M238 1206q39 78 56 153t17 152q0 20 -1 43t-3 35h197v-38q0 -15 -2 -35q-8 -104 -43 -191.5t-84 -165.5z" />
<glyph unicode="&#x2c6;" horiz-adv-x="770" d="M106 1282l279 293l279 -293l-80 -90l-199 180l-199 -180z" />
<glyph unicode="&#x2c7;" horiz-adv-x="770" d="M106 1493l80 90l199 -180l199 180l80 -90l-279 -293z" />
<glyph unicode="&#x2c9;" horiz-adv-x="770" d="M94 1309v147h582v-147h-582z" />
<glyph unicode="&#x2d8;" horiz-adv-x="770" d="M119 1534h123q2 -23 9 -49.5t23.5 -48t45 -36t71.5 -14.5t72 14.5t45 36t23.5 48t9.5 49.5h123q2 -68 -18.5 -121t-58.5 -89t-88 -55.5t-108 -19.5q-57 0 -107.5 19.5t-88 55.5t-58 89t-18.5 121z" />
</font>
</defs>
</svg>
